<?xml version="1.0" standalone="no"?>
<!DOCTYPE svg PUBLIC "-//W3C//DTD SVG 1.1//EN" "http://www.w3.org/Graphics/SVG/1.1/DTD/svg11.dtd" >
<svg xmlns="http://www.w3.org/2000/svg" xmlns:xlink="http://www.w3.org/1999/xlink" version="1.1">
<metadata>
Created by FontForge 20170731 at Thu Jan 12 02:58:18 2012
 By Aleksey,,,
Copyright (c) 2011, Matthew Desmond (http://www.madtype.com | mattdesmond@gmail.com), with Reserved Font Name Lustria
</metadata>
<defs>
<font id="Lustria-Regular" horiz-adv-x="606" >
  <font-face 
    font-family="Lustria"
    font-weight="400"
    font-stretch="normal"
    units-per-em="1000"
    panose-1="2 0 6 3 6 0 0 2 0 4"
    ascent="800"
    descent="-200"
    x-height="500"
    cap-height="704"
    bbox="-112 -327 1169 955"
    underline-thickness="20"
    underline-position="-153"
    unicode-range="U+0020-2212"
  />
<missing-glyph horiz-adv-x="1000" 
 />
    <glyph glyph-name=".notdef" horiz-adv-x="1000" 
 />
    <glyph glyph-name=".null" horiz-adv-x="0" 
 />
    <glyph glyph-name="nonmarkingreturn" horiz-adv-x="333" 
 />
    <glyph glyph-name="space" unicode=" " horiz-adv-x="230" 
 />
    <glyph glyph-name="exclam" unicode="!" horiz-adv-x="263" 
d="M181 668l-32 -437q0 -11 -13 -11h-10q-12 0 -13 11q-6 89 -19 254.5t-13 185t15 30t35.5 10.5t35 -11t14.5 -32zM174.5 94q18.5 -18 18.5 -43.5t-18.5 -43.5t-43.5 -18t-43 18t-18 43t18 43.5t43 18.5t43.5 -18z" />
    <glyph glyph-name="quotedbl" unicode="&#x22;" horiz-adv-x="337" 
d="M111 463h-33q-11 0 -11 12l-17 224q0 12 11 12h67q11 0 11 -12l-17 -224q0 -12 -11 -12zM259 463h-33q-11 0 -11 12l-17 224q0 12 11 12h67q11 0 11 -12l-17 -224q0 -12 -11 -12z" />
    <glyph glyph-name="numbersign" unicode="#" horiz-adv-x="668" 
d="M607 510q11 0 11 -8q0 -2 -1 -4l-8 -31q-4 -12 -13 -12h-113l-47 -214h133q13 0 10 -12l-8 -31q-4 -12 -13 -12h-134l-41 -185q-2 -12 -14 -12h-36q-5 0 -8.5 3.5t-2.5 8.5l41 185h-149l-41 -185q-2 -12 -14 -12h-36q-5 0 -8.5 3.5t-2.5 8.5l41 185h-90q-5 0 -9 4t-3 8
l8 31q3 12 13 12h93l47 214h-111q-5 0 -9 3.5t-3 8.5l8 31q3 12 13 12h115l42 189q2 12 14 12h37q12 0 10 -12l-42 -189h149l42 189q2 12 14 12h37q12 0 10 -12l-42 -189h111zM273 455l-47 -214h149l47 214h-149z" />
    <glyph glyph-name="dollar" unicode="$" horiz-adv-x="571" 
d="M258 -108v97q-87 2 -147.5 26t-60.5 51v117q0 21 16 21q13 0 18 -19q25 -72 62 -109.5t112 -42.5v293q-46 22 -73 37t-59 41q-64 49 -64 126t54.5 124.5t141.5 55.5v76q0 12 11 12h27q11 0 11 -12v-76q69 -3 121.5 -23.5t52.5 -44.5v-101q0 -20 -14.5 -20t-21.5 20
q-20 59 -50 89.5t-88 35.5v-268q111 -54 146 -86q48 -43 58 -73.5t10 -57.5q0 -86 -59.5 -134.5t-154.5 -55.5v-99q0 -12 -11 -12h-27q-11 0 -11 12zM399 75q37 33 37 82.5t-33.5 81.5t-95.5 63v-267q55 7 92 40zM173.5 627.5q-30.5 -30.5 -30.5 -74t29.5 -73t85.5 -58.5
v243q-54 -7 -84.5 -37.5z" />
    <glyph glyph-name="percent" unicode="%" horiz-adv-x="855" 
d="M121 501q0 -158 81 -158t81 158t-81 158t-81 -158zM50 501q0 87 40.5 143t111.5 56t111.5 -56t40.5 -143t-40.5 -143t-111.5 -56t-111.5 56t-40.5 143zM734 199q0 158 -81 158t-81 -158t81 -158t81 158zM805 199q0 -87 -40.5 -143t-111.5 -56t-111.5 56t-40.5 143
t40.5 143t111.5 56t111.5 -56t40.5 -143zM244 -23h-35q-8 0 -8 4t2 8l389 722q6 12 18 12h35q8 0 8 -4t-2 -8l-389 -722q-6 -12 -18 -12z" />
    <glyph glyph-name="ampersand" unicode="&#x26;" horiz-adv-x="715" 
d="M508 575q0 -36 -11.5 -54.5t-17.5 -28.5t-22.5 -23t-23 -19t-29.5 -19t-29 -17q-12 -8 -64 -34q64 -93 178 -203q24 49 41 129q2 8 2 15q0 23 -23 24l-35 2q-12 0 -12 13.5t15 13.5l90 -2l85 3q14 0 14 -12t-11 -14l-20 -3q-25 -3 -38.5 -11.5t-18.5 -28.5
q-25 -104 -54 -161q48 -45 90 -79q44 -38 70 -41l18 -2q12 -1 12 -14t-14 -13q-96 4 -117 4t-43 20q-40 35 -61 56q-75 -87 -201 -87q-97 0 -162.5 49.5t-65.5 125t43.5 123.5t121.5 93q-58 98 -58 170.5t50.5 116.5t126.5 44t125 -38.5t49 -97.5zM146 184q0 -62 40.5 -105
t101.5 -43q97 0 157 72q-134 128 -204 230q-95 -65 -95 -154zM234 577q0 -67 52 -158q69 39 99.5 64t41.5 47t11 54.5t-29 58.5t-73.5 26t-73 -26t-28.5 -66z" />
    <glyph glyph-name="quotesingle" unicode="'" horiz-adv-x="189" 
d="M111 463h-33q-11 0 -11 12l-17 224q0 12 11 12h67q11 0 11 -12l-17 -224q0 -12 -11 -12z" />
    <glyph glyph-name="parenleft" unicode="(" horiz-adv-x="375" 
d="M55 277q0 96 25 181t66 145q80 118 173 165q6 2 9 2q17 0 17 -16q0 -8 -7 -14q-80 -67 -137 -168q-64 -115 -64 -295t64 -295q57 -101 137 -168q7 -6 7 -14q0 -16 -17 -16q-3 0 -9 2q-93 47 -173 165q-41 60 -66 145t-25 181z" />
    <glyph glyph-name="parenright" unicode=")" horiz-adv-x="375" 
d="M320 277q0 -96 -25 -181t-66 -145q-80 -118 -173 -165q-6 -2 -9 -2q-17 0 -17 16q0 8 7 14q80 67 137 168q64 115 64 295t-64 295q-57 101 -137 168q-7 6 -7 14q0 16 17 16q3 0 9 -2q93 -47 173 -165q41 -60 66 -145t25 -181z" />
    <glyph glyph-name="asterisk" unicode="*" horiz-adv-x="489" 
d="M217 711h55q5 0 8.5 -3.5t2.5 -8.5l-18 -154l141 65q11 6 15 -7l17 -52q1 -3 1 -5q0 -7 -9 -9l-152 -31l105 -114q9 -9 -2 -17l-44 -32q-4 -3 -8 -3t-8 6l-76 135l-76 -135q-4 -7 -8.5 -7t-8.5 3l-44 32q-9 8 -2 17l106 115l-152 30q-10 3 -10 11q0 2 1 4l17 52
q4 11 15 7l141 -65l-18 154q-1 5 2.5 8.5t8.5 3.5z" />
    <glyph glyph-name="plus" unicode="+" horiz-adv-x="674" 
d="M602 264h-234v-234q0 -12 -11 -12h-40q-11 0 -11 12v234h-234q-12 0 -12 11v40q0 11 12 11h234v234q0 12 11 12h40q11 0 11 -12v-234h234q12 0 12 -11v-40q0 -11 -12 -11z" />
    <glyph glyph-name="comma" unicode="," horiz-adv-x="246" 
d="M78 -135q-18 0 -18 17q0 9 7 14q52 39 55 91q-30 2 -46 19.5t-16 43t18 44t44 18.5t45 -21t19 -65t-30 -90t-64 -66q-8 -5 -14 -5z" />
    <glyph glyph-name="hyphen" unicode="-" horiz-adv-x="365" 
d="M82 329h201q12 0 12 -11v-47q0 -11 -12 -11h-201q-12 0 -12 11v47q0 11 12 11z" />
    <glyph glyph-name="period" unicode="." horiz-adv-x="243" 
d="M164.5 94q18.5 -18 18.5 -43.5t-18.5 -43.5t-43.5 -18t-43 18t-18 43t18 43.5t43 18.5t43.5 -18z" />
    <glyph glyph-name="slash" unicode="/" horiz-adv-x="345" 
d="M81 -90h-40q-12 0 -10 12l219 834q2 12 14 12h40q12 0 10 -12l-219 -834q-2 -12 -14 -12z" />
    <glyph glyph-name="zero" unicode="0" horiz-adv-x="620" 
d="M144 350q0 -318 166 -318t166 318t-166 318t-166 -318zM50 350q0 160 67.5 260.5t192.5 100.5t192.5 -100.5t67.5 -260.5t-67.5 -260.5t-192.5 -100.5t-192.5 100.5t-67.5 260.5z" />
    <glyph glyph-name="one" unicode="1" horiz-adv-x="417" 
d="M367 11q0 -6 -4.5 -10.5t-9.5 -4.5l-138 4l-146 -4q-15 0 -15 14.5t13 14.5l53 2q20 2 36 12t16 29v555q0 39 -41 39h-4l-66 -3q-11 0 -11 13t14 15l178 24q15 0 15 -11v-632q0 -37 45 -41l53 -2q12 0 12 -14z" />
    <glyph glyph-name="two" unicode="2" horiz-adv-x="519" 
d="M426 0h-374q-12 0 -12 11v9q0 9 5 17q45 70 110 160.5t98 138t59 105t26 111t-30.5 87t-83 33.5t-82 -33t-42.5 -76q-5 -18 -21 -18q-7 0 -12 5.5t-5 12.5v79q0 22 52 45.5t118 23.5q92 0 145.5 -48t53.5 -124q0 -48 -24 -98.5t-55.5 -89.5t-98.5 -119.5t-116 -146.5h247
q34 0 42.5 15.5t18.5 15.5q15 0 13 -19l-5 -65q-1 -15 -9 -23.5t-18 -8.5z" />
    <glyph glyph-name="three" unicode="3" horiz-adv-x="472" 
d="M357 328q55 -47 55 -113.5t-32 -112t-84 -70.5q-105 -52 -226 -52q-26 0 -26 21q0 7 7 13.5t19 7.5q109 9 177.5 53t68.5 128q0 64 -45.5 100t-127.5 37q-31 0 -31 18q0 10 11 17q97 56 135.5 103.5t38.5 94t-26 73t-64.5 26.5t-62.5 -15t-34.5 -30.5t-25 -47.5
t-28.5 -32q-7 0 -11.5 6t-4.5 11v79q0 22 48.5 45t122 23t127 -34t53.5 -101q0 -63 -59 -116q-43 -39 -109 -79q79 -6 134 -53z" />
    <glyph glyph-name="four" unicode="4" horiz-adv-x="539" 
d="M509 215q0 -21 -18 -21h-74v-173q0 -21 -21 -21h-42q-21 0 -21 21v173h-311q-12 0 -12 11v13q0 10 5 17l334 461q11 15 26 15h19q13 0 18 -5.5t5 -18.5v-435h74q18 0 18 -16v-21zM333 252v343l-232 -327q-4 -7 -4 -11.5t8 -4.5h228z" />
    <glyph glyph-name="five" unicode="5" horiz-adv-x="471" 
d="M374 615h-224l-19 -156q122 -18 196 -77t74 -152q0 -61 -31.5 -110.5t-81.5 -79.5q-101 -60 -212 -60q-26 0 -26 21q0 18 26 21q96 11 166 61t70 124.5t-59 118t-159 55.5q-13 1 -16.5 5.5t-1.5 16.5l34 286q2 11 12 11h263q5 0 8 -3.5t2 -7.5l-7 -62q-2 -12 -14 -12z
" />
    <glyph glyph-name="six" unicode="6" horiz-adv-x="559" 
d="M445.5 53q-62.5 -64 -164 -64t-161.5 67.5t-60 192t88 259t236 203.5q1 1 9 1t16.5 -4.5t8.5 -17t-15 -21.5q-188 -113 -239 -304q53 48 133 48q102 0 157 -61t54.5 -148t-63 -151zM284 31q61 0 97.5 47.5t36.5 124t-37 119t-97 42.5t-97 -42.5t-37 -119t36.5 -124
t97.5 -47.5z" />
    <glyph glyph-name="seven" unicode="7" horiz-adv-x="447" 
d="M406 700q11 0 11 -10q0 -3 -1 -5q-151 -444 -208 -673q-2 -12 -14 -12h-64q-5 0 -8.5 4t-1.5 9q41 135 226 602h-252q-34 0 -42 -15.5t-20 -15.5t-12 16q0 2 5 68q1 15 9 23.5t18 8.5h354z" />
    <glyph glyph-name="eight" unicode="8" horiz-adv-x="524" 
d="M110 37q-55 48 -55 115.5t36 113t102 91.5q-54 40 -84 83t-30 109t55 114t132 48t127 -43t50 -102.5t-31.5 -101t-89.5 -81.5q69 -46 108 -94t39 -123.5t-65.5 -126t-152 -50.5t-141.5 48zM336 253q-27 24 -42.5 35t-56.5 38q-61 -41 -93.5 -79.5t-32.5 -90t41 -87.5
t97 -36t95.5 35t39.5 88.5t-48 96.5zM192 637.5q-32 -29.5 -32 -74t30 -78t87 -71.5q53 37 81.5 71t28.5 78t-33.5 74t-81.5 30t-80 -29.5z" />
    <glyph glyph-name="nine" unicode="9" horiz-adv-x="539" 
d="M103.5 647q62.5 64 164 64t161.5 -67.5t60 -192t-88 -259t-236 -203.5q-1 -1 -9 -1t-16.5 4.5t-8.5 17t15 21.5q188 113 239 304q-53 -48 -133 -48q-102 0 -157 61t-54.5 148t63 151zM265 669q-61 0 -97.5 -47.5t-36.5 -124t37 -119t97 -42.5t97 42.5t37 119t-36.5 124
t-97.5 47.5z" />
    <glyph glyph-name="colon" unicode=":" horiz-adv-x="263" 
d="M174.5 493q18.5 -18 18.5 -43.5t-18.5 -43.5t-43.5 -18t-43 18.5t-18 43.5t18 43t43 18t43.5 -18zM174.5 94q18.5 -18 18.5 -43.5t-18.5 -43.5t-43.5 -18t-43 18t-18 43t18 43.5t43 18.5t43.5 -18z" />
    <glyph glyph-name="semicolon" unicode=";" horiz-adv-x="266" 
d="M174.5 493q18.5 -18 18.5 -43.5t-18.5 -43.5t-43.5 -18t-43 18.5t-18 43.5t18 43t43 18t43.5 -18zM88 -135q-18 0 -18 17q0 9 7 14q52 39 55 91q-30 2 -46 19.5t-16 43t18 44t44 18.5t45 -21t19 -65t-30 -90t-64 -66q-8 -5 -14 -5z" />
    <glyph glyph-name="less" unicode="&#x3c;" horiz-adv-x="663" 
d="M603 71v-44q0 -5 -3 -7.5t-6 -2.5q-3 1 -534 241q-10 4 -10 13v44q0 9 10 13l531 240q2 1 3 1l5 -2q4 -3 4 -8v-44q0 -8 -12 -13l-467 -209l467 -209q12 -5 12 -13z" />
    <glyph glyph-name="equal" unicode="=" horiz-adv-x="714" 
d="M622 366h-530q-12 0 -12 11v40q0 11 12 11h530q12 0 12 -11v-40q0 -11 -12 -11zM622 162h-530q-12 0 -12 11v40q0 11 12 11h530q12 0 12 -11v-40q0 -11 -12 -11z" />
    <glyph glyph-name="greater" unicode="&#x3e;" horiz-adv-x="663" 
d="M60 515v44q0 5 3 7.5t6 2.5q3 -1 534 -241q10 -4 10 -13v-44q0 -9 -10 -13l-531 -240q-2 -1 -3 -1l-5 2q-4 3 -4 8v44q0 8 12 13l467 209l-467 209q-12 5 -12 13z" />
    <glyph glyph-name="question" unicode="?" horiz-adv-x="430" 
d="M190 220h-10q-12 0 -13.5 15t-1.5 39t8.5 60.5t27 68t37.5 59.5q48 68 48 115t-23.5 71t-62.5 24t-62 -23.5t-40.5 -62.5t-31.5 -39q-7 0 -11.5 6t-4.5 11v79q0 22 44.5 45t116 23t120.5 -35t49 -103q0 -64 -57 -126q-24 -26 -49 -54q-60 -67 -71 -162q0 -11 -13 -11z
M228 94q18 -18 18 -43.5t-18.5 -43.5t-43.5 -18t-43 18t-18 43t18 43.5t43.5 18.5t43.5 -18z" />
    <glyph glyph-name="at" unicode="@" horiz-adv-x="837" 
d="M386 208q40 0 69 31.5t35 71.5l25 183q-32 9 -71 9t-70 -33q-54 -58 -54 -169q0 -93 66 -93zM379 -11q-143 0 -236 84.5t-93 218.5q0 176 122 297.5t295 121.5q141 0 230.5 -81.5t89.5 -209.5t-64 -194.5t-135 -66.5q-86 0 -102 65q-50 -62 -114.5 -62t-96 35t-31.5 99
q0 99 60 172t152 73q62 0 103 -11l15 -4q11 -1 11 -14l-36 -249q-1 -5 -1 -17t10.5 -28t37.5 -16q46 0 84 54t38 163.5t-69.5 179t-187.5 69.5q-147 0 -240.5 -107t-93.5 -267q0 -119 69 -191t189 -72q49 0 97.5 12.5t72.5 25.5l24 13q11 6 16 -2l8 -12q3 -4 1.5 -10.5
t-6.5 -8.5q-10 -7 -28.5 -17t-75.5 -26.5t-115 -16.5z" />
    <glyph glyph-name="A" unicode="A" horiz-adv-x="717" 
d="M227 275h223q11 0 7 12l-119 306l-119 -308q-3 -10 8 -10zM134 66q-2 -6 -2 -13.5t8 -17t22 -10.5l22 -2q13 -2 13 -13q0 -14 -15 -14l-87 4l-91 -4q-14 0 -14 13.5t11 13.5l19 2q43 5 58 41l257 633q4 12 23.5 12t24.5 -12l256 -633q13 -37 57 -41l21 -2q4 0 7 -4t3 -8
q0 -15 -14 -15l-115 4l-103 -4q-14 0 -14 12q0 14 12 15l23 2q13 1 21.5 10t8.5 17t-3 14l-59 153q-3 10 -16 10h-259q-12 0 -16 -10z" />
    <glyph glyph-name="B" unicode="B" horiz-adv-x="640" 
d="M545.5 327.5q49.5 -49.5 49.5 -129.5t-60 -139t-149 -59h-228l-113 -4q-14 0 -14 16q0 11 11 11l29 2q46 6 46 41v568q0 36 -46 40l-29 3q-11 2 -11 12q0 15 14 15l125 -4h194q78 0 130 -48t52 -112t-34 -101.5t-79 -51.5v-2q63 -8 112.5 -57.5zM457 531q0 58 -37 91.5
t-97 33.5h-84q-14 0 -25.5 -10.5t-11.5 -21.5v-201q0 -20 20 -20h101q59 0 96.5 35t37.5 93zM459.5 88q46.5 44 46.5 114.5t-46.5 113.5t-118.5 43h-122q-17 0 -17 -18v-257q0 -40 40 -40h99q72 0 118.5 44z" />
    <glyph glyph-name="C" unicode="C" horiz-adv-x="683" 
d="M631 529q0 -7 -4.5 -13.5t-11.5 -6.5q-17 0 -22 20q-18 67 -67 105t-116 38q-121 0 -192.5 -83t-71.5 -212t75.5 -230t188.5 -101q65 0 97.5 12.5t44 18t29.5 17.5t20 13q18 11 25 3.5t7 -14.5t-8 -15q-34 -38 -70 -57q-65 -35 -155 -35q-156 0 -253 103t-97 259t99 258
t261 102q84 0 152.5 -23t68.5 -45v-114z" />
    <glyph glyph-name="D" unicode="D" horiz-adv-x="741" 
d="M596 607.5q95 -92.5 95 -245.5t-98.5 -257.5t-251.5 -104.5h-172l-125 -5q-14 0 -14 13.5t11 13.5l29 2q20 2 33 12.5t13 28.5v569q0 36 -46 40l-29 3q-11 2 -11 13q0 14 14 14l125 -4h172q160 0 255 -92.5zM538 550q-30 48 -81 76t-117 28h-90q-22 0 -35.5 -12
t-13.5 -35v-515q0 -21 13.5 -33.5t35.5 -12.5h95q115 0 184 79t69 205t-60 220z" />
    <glyph glyph-name="E" unicode="E" horiz-adv-x="634" 
d="M532 0h-375l-113 -4q-14 0 -14 13.5t11 13.5l29 2q20 2 33 12.5t13 28.5v568q0 36 -46 40l-29 3q-11 0 -11 13.5t14 13.5l113 -4h355q19 0 31 -11.5t14 -28.5l14 -92q2 -18 -14.5 -18t-21.5 16q-15 48 -45 68t-83 20h-157q-22 0 -35.5 -12.5t-13.5 -34.5v-210
q0 -13 13 -13h186q14 0 22 7t10.5 13t7.5 22l4 13q3 12 15 12t12 -14l-4 -85l4 -81q0 -13 -13 -15q-12 0 -14 12l-3 18q-9 52 -41 52h-187q-12 0 -12 -14v-232q0 -21 13.5 -33.5t35.5 -12.5h165q52 0 89.5 25.5t52.5 74.5q5 16 16.5 16t16 -5.5t3.5 -12.5l-16 -104
q-2 -17 -14.5 -28.5t-30.5 -11.5z" />
    <glyph glyph-name="F" unicode="F" horiz-adv-x="582" 
d="M561 568q2 -18 -14.5 -18t-21.5 16q-15 48 -45 68t-83 20h-147q-22 0 -35.5 -12.5t-13.5 -34.5v-220q0 -13 13 -13h176q13 0 21.5 6.5t11 13.5t7.5 22l4 13q3 11 13 11q14 0 14 -13l-4 -86l4 -83q0 -14 -12.5 -14t-14.5 12l-3 18q-4 26 -12.5 39t-28.5 13h-177
q-12 0 -12 -14v-246q0 -37 44 -41l30 -2q12 0 12 -12q0 -15 -15 -15l-115 4l-113 -4q-14 0 -14 13.5t11 13.5l29 2q20 2 33 12.5t13 28.5v568q0 36 -46 40l-29 3q-11 0 -11 13.5t14 13.5l113 -4h345q19 0 31 -11.5t14 -28.5z" />
    <glyph glyph-name="G" unicode="G" horiz-adv-x="759" 
d="M417 711q84 0 152.5 -23t68.5 -45v-114q0 -7 -4.5 -13.5t-11.5 -6.5q-17 0 -22 20q-18 67 -67 105t-116 38q-124 0 -197.5 -83t-73.5 -211q0 -84 33 -162t94.5 -128.5t136 -50.5t126 30.5t51.5 64.5v124q0 38 -45 40l-54 3q-11 0 -11 13.5t13 13.5l136 -4l99 4
q14 0 14 -12q0 -14 -12 -15l-17 -3q-40 -7 -40 -40v-193l6 -56q2 -18 -15 -18q-11 0 -18 13q-16 36 -53 36q-8 0 -30 -12q-68 -37 -160 -37q-156 0 -253 103t-97 258.5t102 258t265 102.5z" />
    <glyph glyph-name="H" unicode="H" horiz-adv-x="802" 
d="M761 23q11 0 11 -13.5t-14 -13.5l-112 4l-98 -4q-15 0 -15 14q0 11 11 13l18 2q40 5 40 41v248q0 19 -18 19h-366q-7 0 -12 -5.5t-5 -13.5v-248q0 -36 40 -41l17 -2q13 -2 13 -13q0 -6 -4.5 -10t-10.5 -4l-99 4l-113 -4q-14 0 -14 13.5t11 13.5l29 2q20 2 33 12.5
t13 28.5v568q0 36 -46 40l-29 3q-11 0 -11 13.5t14 13.5l113 -4l99 4q15 0 15 -12q0 -14 -13 -15l-17 -3q-40 -7 -40 -40v-235q0 -20 20 -20h362q19 0 19 17v238q0 33 -40 40l-18 3q-11 2 -11 13q0 14 15 14l98 -4l112 4q14 0 14 -13.5t-11 -13.5l-30 -3q-44 -4 -44 -40
v-568q0 -37 44 -41z" />
    <glyph glyph-name="I" unicode="I" horiz-adv-x="317" 
d="M61 -4q-14 0 -14 12.5t11 14.5l17 2q41 5 41 41v568q0 36 -46 40l-29 3q-11 2 -11 13q0 14 14 14l113 -4l99 4q15 0 15 -12q0 -14 -13 -15l-17 -3q-40 -7 -40 -40v-568q0 -18 13 -28.5t32 -12.5l29 -2q12 0 12 -13q0 -6 -4.5 -10t-9.5 -4l-113 4z" />
    <glyph glyph-name="J" unicode="J" horiz-adv-x="317" 
d="M202 634v-639q0 -102 -33.5 -164.5t-93.5 -102.5q-44 -28 -56.5 -28t-16.5 7q-7 13 -7 18t7 10q51 36 65 53q50 53 50 156v690q0 36 -46 40l-29 3q-11 2 -11 13q0 14 14 14l113 -4l99 4q15 0 15 -12q0 -14 -13 -15l-17 -3q-40 -7 -40 -40z" />
    <glyph glyph-name="K" unicode="K" horiz-adv-x="690" 
d="M508 666l-5 26q0 11 13 11l56 -3l98 4q15 0 15 -13.5t-13 -13.5l-30 -3q-34 -3 -66 -40l-220 -248q-14 -16 -35 -25q21 -9 35 -26l246 -267q37 -39 66 -41l29 -2q13 -2 13 -14.5t-14 -12.5q-118 2 -137.5 2t-39.5 22l-239 273q-25 30 -47 30h-1h-24q-7 0 -7 -11v-248
q0 -39 27 -42l10 -1q11 -2 11 -13q0 -14 -14 -14l-75 4l-99 -4q-15 0 -15 12.5t12 14.5l17 2q41 5 41 41v568q0 34 -46 40l-29 3q-11 2 -11 13q0 14 14 14l113 -4l78 4q15 0 15 -12.5t-13 -14.5l-9 -1q-27 -5 -27 -42v-251q0 -12 9 -12h26q24 0 49 30l210 239q13 14 13 26z
" />
    <glyph glyph-name="L" unicode="L" horiz-adv-x="594" 
d="M201 634v-542q0 -21 13.5 -33.5t35.5 -12.5h145q53 0 91 25.5t52 74.5q5 16 21 16t14 -18l-16 -104q-2 -17 -14 -28.5t-31 -11.5h-355l-113 -4q-14 0 -14 13.5t11 13.5l29 2q20 2 33 12.5t13 28.5v568q0 36 -46 40l-29 3q-11 2 -11 13q0 14 14 14l113 -4l99 4
q15 0 15 -12q0 -14 -13 -15l-17 -3q-40 -7 -40 -40z" />
    <glyph glyph-name="M" unicode="M" horiz-adv-x="960" 
d="M935 10q0 -6 -4.5 -10t-9.5 -4l-113 4l-99 -4q-14 0 -14 12.5t11 14.5l17 2q42 5 42 41l-8 473q0 10 -6 10q-3 0 -4 -3l-272 -544q-5 -9 -12 -9t-11 9l-273 528q-1 3 -4 3q-6 0 -6 -10l-6 -457q0 -33 40 -40l17 -3q13 -2 13 -14t-15 -12l-82 3l-97 -3q-14 0 -14 12t11 14
l29 3q46 5 46 40l12 568q1 35 -40 40l-18 2q-12 2 -12 14.5t15 12.5l88 -3q34 -1 43 -20l283 -560l276 560q9 18 44 20l89 3q16 0 16 -12.5t-12 -14.5l-18 -2q-39 -3 -39 -40l12 -568q0 -18 12.5 -28.5t31.5 -12.5l29 -2q12 0 12 -13z" />
    <glyph glyph-name="N" unicode="N" horiz-adv-x="762" 
d="M613 149v485q0 35 -45 40l-29 3q-11 2 -11 14t14 12l97 -3l78 3q15 0 15 -12t-13 -14l-17 -3q-40 -7 -40 -40v-633q0 -12 -11 -12h-13q-25 0 -43 24l-421 539q-2 2 -6 2t-4 -10v-478q0 -33 40 -40l17 -3q13 -2 13 -14t-15 -12l-78 3l-97 -3q-14 0 -14 12t11 14l29 3
q46 5 46 40v568q0 35 -40 40l-18 2q-12 2 -12 14.5t15 12.5l80 -3q29 -1 44 -19l417 -535q3 -3 7 -3t4 6z" />
    <glyph glyph-name="O" unicode="O" horiz-adv-x="800" 
d="M654.5 610.5q95.5 -100.5 95.5 -258.5t-97.5 -260.5t-253 -102.5t-252.5 102t-97 258.5t97 259t254.5 102.5t253 -100.5zM598 554q-29 51 -80 81t-119 30q-122 0 -188.5 -74.5t-66.5 -202.5q0 -133 60 -238q29 -52 81 -83.5t119 -31.5q119 0 185.5 78t66.5 210t-58 231z
" />
    <glyph glyph-name="P" unicode="P" horiz-adv-x="596" 
d="M474 504q0 68 -45 110t-128 42h-60q-40 0 -40 -40v-254q0 -13 11 -13h89q83 0 128 43.5t45 111.5zM322 700q115 0 179.5 -53t64.5 -140.5t-63 -145.5t-169 -58h-118q-15 0 -15 -12v-225q0 -18 13 -29t32 -12l42 -2q11 0 11 -13.5t-14 -13.5l-125 4l-111 -4q-15 0 -15 12
q0 14 12 15l29 2q41 3 41 41v568q0 36 -46 40l-29 3q-11 2 -11 13q0 14 14 14l138 -4h140z" />
    <glyph glyph-name="Q" unicode="Q" horiz-adv-x="801" 
d="M756 -239q0 -14 -14 -14q-99 4 -121.5 4t-37.5 20l-140 187q-24 31 -43 31q-157 0 -253.5 101.5t-96.5 258.5t97 259.5t254.5 102.5t253 -100.5t95.5 -260.5q0 -129 -69 -224.5t-186 -124.5q31 -14 49 -38l116 -146q29 -36 66 -41l18 -2q12 -2 12 -13zM598 554
q-29 51 -80 80.5t-119 29.5q-122 0 -188.5 -74.5t-66.5 -201.5q0 -133 60 -238q29 -52 81 -83.5t119 -31.5q119 0 185.5 77.5t66.5 210t-58 231.5z" />
    <glyph glyph-name="R" unicode="R" horiz-adv-x="663" 
d="M497 517q0 63 -46 100.5t-116 37.5h-94q-40 0 -40 -40v-225q0 -13 11 -13h123q69 0 115.5 38.5t46.5 101.5zM369 700q96 0 157.5 -49t61.5 -129.5t-60.5 -133t-134.5 -54.5l-1 -2q21 -7 33 -26l151 -240q21 -35 66 -41l18 -2q13 -2 13 -13q0 -14 -15 -14q-96 4 -119.5 4
t-36.5 20l-169 281q-20 31 -44 31h-1h-72q-15 0 -15 -12v-254q0 -18 13 -29t32 -12l42 -2q11 0 11 -13.5t-14 -13.5l-125 4l-111 -4q-13 0 -15 12q0 14 12 15l29 2q41 3 41 41v568q0 36 -46 40l-29 3q-11 2 -11 13q0 14 14 14l138 -4h187z" />
    <glyph glyph-name="S" unicode="S" horiz-adv-x="571" 
d="M521 181q0 -94 -70.5 -143t-171 -49t-165 24t-64.5 53v117q0 21 16 21q13 0 18 -19q26 -77 67.5 -114.5t116.5 -37.5t121.5 34t46.5 94q0 66 -74 111q-33 20 -73 39t-80 39.5t-73 44.5q-74 54 -74 136.5t63.5 131t149.5 48.5t146 -21.5t60 -47.5v-101q0 -20 -14.5 -20
t-21.5 20q-21 64 -55 95t-101.5 31t-106.5 -32t-39 -79.5t39 -82t94.5 -61t111 -55t94.5 -73.5t39 -103z" />
    <glyph glyph-name="T" unicode="T" horiz-adv-x="621" 
d="M353 627v-561q0 -18 13 -28.5t32 -12.5l29 -2q12 0 12 -13q0 -6 -4.5 -10t-9.5 -4l-113 4l-124 -4q-5 0 -9.5 4t-4.5 10q0 13 12 13l37 2q19 2 32 12.5t13 28.5v561q0 27 -25 27h-84q-49 0 -77 -26.5t-44 -78.5q-6 -15 -16.5 -15t-15.5 5.5t-4 12.5l8 129q2 19 22 19h554
q21 0 23 -24l10 -124q1 -8 -4 -13t-15.5 -5t-16.5 15q-18 53 -45.5 79t-75.5 26h-84q-25 0 -25 -27z" />
    <glyph glyph-name="U" unicode="U" horiz-adv-x="773" 
d="M116 257v377q0 36 -46 40l-29 3q-11 2 -11 13q0 14 14 14l113 -4l99 4q15 0 15 -12q0 -14 -13 -15l-17 -3q-40 -7 -40 -40v-378q0 -93 56 -145t147.5 -52t148 53t56.5 144v378q0 33 -40 40l-17 3q-13 2 -13 14t15 12l78 -3l97 3q14 0 14 -12t-11 -14l-29 -3
q-46 -5 -46 -40v-377q0 -123 -75.5 -195.5t-193.5 -72.5t-195 75t-77 193z" />
    <glyph glyph-name="V" unicode="V" horiz-adv-x="695" 
d="M498 690q0 14 15 14l87 -4l91 4q14 0 14 -13.5t-11 -13.5l-19 -2q-45 -5 -58 -41l-247 -633q-4 -12 -22.5 -12t-23.5 12l-246 633q-15 38 -57 41l-21 2q-4 0 -7 4t-3 8q0 15 14 15l105 -4l111 4q14 0 14 -12q0 -14 -12 -15l-23 -2q-17 -1 -24.5 -14t-2.5 -27l192 -524
l197 524q6 15 -1.5 27.5t-26.5 13.5l-22 2q-13 2 -13 13z" />
    <glyph glyph-name="W" unicode="W" horiz-adv-x="1053" 
d="M321 -11q-17 0 -22 12l-216 633q-13 37 -57 41l-21 2q-4 0 -7 4t-3 8q0 15 14 15l102 -4l111 4q14 0 14 -12q0 -14 -12 -15l-23 -2q-17 -1 -24.5 -13t-2.5 -28l164 -501l183 558q4 13 23 13t23 -13l182 -558l165 501q5 17 -2.5 28.5t-25.5 12.5l-22 2q-13 2 -13 13
q0 14 15 14l87 -4l91 4q14 0 14 -13.5t-11 -13.5l-19 -2q-46 -6 -58 -41l-217 -633q-4 -12 -21 -12t-22 12l-184 547l-184 -547q-4 -12 -21 -12z" />
    <glyph glyph-name="X" unicode="X" horiz-adv-x="709" 
d="M219 25q12 -1 12 -14t-15 -13l-76 2l-105 -3q-14 0 -14 12t11 14l30 3q30 3 57 40l191 276l-192 292q-24 37 -58 40l-29 3q-11 2 -11 14t14 12l117 -3l103 2q15 0 15 -13t-12 -14l-18 -2q-17 -2 -23 -14.5t2 -24.5l143 -219l152 219q9 11 3 24t-24 15l-19 2q-12 1 -12 14
t15 13l76 -2l105 3q14 0 14 -12t-11 -14l-30 -3q-30 -3 -57 -40l-183 -263l201 -305q26 -37 59 -40l28 -3q11 -2 11 -14t-14 -12l-116 3l-104 -2q-15 0 -15 13t12 14l19 2q17 2 23 14.5t-2 24.5l-153 232l-160 -232q-9 -12 -3 -24.5t24 -14.5z" />
    <glyph glyph-name="Y" unicode="Y" horiz-adv-x="707" 
d="M698 703q14 0 14 -12t-11 -14l-29 -3q-33 -3 -57 -40l-195 -312q-12 -21 -14 -47v-209q0 -18 13 -28.5t32 -12.5l29 -2q12 0 12 -13q0 -6 -4.5 -10t-9.5 -4l-113 4l-100 -4q-14 0 -14 12.5t11 14.5l17 2q41 5 41 41v195q0 19 -9 35l-218 338q-24 37 -58 40l-29 3
q-11 2 -11 14t14 12l119 -3l106 2q15 0 15 -13t-12 -14l-19 -2q-18 -2 -23.5 -15t2.5 -24l174 -286q4 -7 9 -7t9 5l171 288q8 11 2.5 23.5t-23.5 15.5l-19 2q-14 2 -12 14.5t15 12.5l78 -2z" />
    <glyph glyph-name="Z" unicode="Z" horiz-adv-x="608" 
d="M516 0h-469q-12 0 -12 11v9q0 10 5 17l388 607q6 10 -6 10h-220q-42 0 -72 -26t-43 -63q-4 -17 -19 -17q-7 0 -11 5.5t-3 11.5l20 105q5 30 27 30h434q12 0 12 -8v-10q0 -6 -12 -26l-375 -591q-4 -6 -3 -11t6 -5h233q102 0 146 110q6 15 20 15q17 0 15 -18l-16 -116
q-2 -17 -14 -28.5t-31 -11.5z" />
    <glyph glyph-name="bracketleft" unicode="[" horiz-adv-x="375" 
d="M100 -210v973q0 12 14 12h188q13 0 13 -13v-17q0 -13 -13 -13h-127v-911h127q13 0 13 -13v-17q0 -13 -13 -13h-188q-14 0 -14 12z" />
    <glyph glyph-name="backslash" unicode="\" horiz-adv-x="345" 
d="M41 768h40q12 0 14 -12l219 -834q2 -12 -10 -12h-40q-12 0 -14 12l-219 834q-2 12 10 12z" />
    <glyph glyph-name="bracketright" unicode="]" horiz-adv-x="375" 
d="M275 763v-973q0 -12 -14 -12h-188q-13 0 -13 13v17q0 13 13 13h127v911h-127q-13 0 -13 13v17q0 13 13 13h188q14 0 14 -12z" />
    <glyph glyph-name="asciicircum" unicode="^" horiz-adv-x="464" 
d="M104 390h-44q-5 0 -7.5 3t-2.5 5t1 4l146 299q4 10 13 10h44q9 0 13 -10l146 -299q1 -2 1 -4t-2.5 -5t-7.5 -3h-44q-8 0 -13 12l-115 245l-115 -245q-5 -12 -13 -12z" />
    <glyph glyph-name="underscore" unicode="_" horiz-adv-x="538" 
d="M-8 -241h554q12 0 12 -11v-37q0 -11 -12 -11h-554q-12 0 -12 11v37q0 11 12 11z" />
    <glyph glyph-name="grave" unicode="`" horiz-adv-x="345" 
d="M84 665q-19 10 -19 29.5t12.5 34t26.5 14.5t25 -9l151 -132l-18 -24z" />
    <glyph glyph-name="a" unicode="a" horiz-adv-x="511" 
d="M501 5q0 -16 -36 -16q-62 0 -105 49q-7 7 -10.5 7t-10.5 -6q-65 -50 -146 -50q-57 0 -100 35.5t-43 91.5q0 71 62 108q55 32 172 50q28 5 38 7q13 1 13 14v92q0 41 -27.5 65t-73 24t-82 -28t-46.5 -78q-3 -15 -16.5 -15t-13.5 15v75q0 17 11 25q53 41 152 41t139 -43
t40 -111v-267q0 -32 20.5 -52t48.5 -20q14 0 14 -13zM333 98v125q0 15 -13 15h-3q-179 -22 -179 -110q0 -41 27 -64.5t60.5 -23.5t59 13t37 26t11.5 19z" />
    <glyph glyph-name="b" unicode="b" horiz-adv-x="610" 
d="M491 438.5q69 -72.5 69 -184.5t-75.5 -188.5t-180.5 -76.5q-77 0 -133 28q-18 9 -27 9q-19 0 -33 -23q-6 -14 -15 -14q-19 0 -17 18q5 43 5 59v655q0 19 -8.5 27t-26.5 8h-35q-13 0 -13 13t13 15l129 16h5q18 0 18 -23l-6 -228v-70q0 -9 4 -11.5t7 0.5q65 43 158 43
t162 -72.5zM472 220q0 118 -46.5 182t-128 64t-125.5 -46q-10 -10 -10 -20v-258q0 -48 40 -81t92 -33q82 0 130 53t48 139z" />
    <glyph glyph-name="c" unicode="c" horiz-adv-x="525" 
d="M472 353q0 -17 -14 -17q-12 0 -16 17q-15 55 -49 87t-86 32q-75 0 -122 -55.5t-47 -147.5q0 -115 56.5 -172t131 -57t121.5 30q7 5 13 5t10.5 -4t4.5 -11.5t-8 -15.5q-55 -55 -163.5 -55t-181 69.5t-72.5 200.5q0 103 72.5 177.5t178.5 74.5q73 0 122 -22.5t49 -48.5v-87
z" />
    <glyph glyph-name="d" unicode="d" horiz-adv-x="624" 
d="M518 800q13 0 13 -21v-690q0 -31 19.5 -51t41.5 -20t22 -13q0 -16 -39 -16q-65 0 -103 47q-6 8 -9.5 8t-24 -14t-56 -27.5t-76.5 -13.5q-119 0 -187.5 72t-68.5 182.5t76 189t180 78.5q76 0 133 -46q4 -3 9 -3t5 13v245q0 20 -8.5 27.5t-27.5 7.5h-34q-5 0 -9 4.5t-4 9.5
q0 14 13 15l132 16h3zM453 135v221q0 45 -42 77t-102 32q-81 0 -126 -50.5t-45 -137.5q0 -116 48.5 -181.5t124.5 -65.5q54 0 98 32t44 73z" />
    <glyph glyph-name="e" unicode="e" horiz-adv-x="542" 
d="M497 316q0 -60 -54 -60h-288q-12 0 -12 -17q2 -92 53.5 -145.5t131 -53.5t117.5 31q13 10 24 -1t-3 -25q-56 -56 -154 -56q-123 0 -192.5 70.5t-69.5 196.5q0 102 69 178.5t164.5 76.5t154.5 -55.5t59 -139.5zM407 329q0 60 -32.5 101.5t-91 41.5t-99.5 -48t-41 -110
q0 -16 13 -16h220q31 0 31 31z" />
    <glyph glyph-name="f" unicode="f" horiz-adv-x="342" 
d="M183 439v-373q0 -18 13 -29t33 -12l36 -2q12 -1 12 -14t-15 -13l-116 4l-95 -4q-15 0 -15 13t12 14l17 2q40 5 40 41v373q0 11 -12 11h-61q-12 0 -12 13v8q0 10 12 12l56 14q17 4 17 18v4q0 119 60.5 200t163.5 81q39 0 64 -10q39 -14 39 -36v-65q0 -6 -4.5 -11.5
t-10.5 -5.5q-14 0 -21 17q-12 30 -38.5 46.5t-59.5 16.5q-57 0 -86 -44t-29 -125v-72q0 -11 10 -11h130q13 0 11 -12l-4 -25q-2 -13 -12 -13h-126q-9 0 -9 -11z" />
    <glyph glyph-name="g" unicode="g" horiz-adv-x="564" 
d="M529 441h-83q-6 0 -7 -3t3 -7q31 -40 31 -101q0 -82 -57.5 -131t-143.5 -49q-49 0 -71.5 7.5t-34.5 0.5q-36 -20 -36 -58q0 -25 21 -40.5t45 -15.5h145q98 0 147.5 -41t49.5 -112q0 -88 -71.5 -137.5t-176.5 -49.5t-170 40t-65 113q0 49 31 81t67 44q-29 7 -56 34.5
t-27 66.5q0 63 64 97q3 2 3 5t-3 7q-62 52 -62 136t56.5 133.5t140.5 49.5q32 0 71.5 -10t53.5 -10h144q12 0 10 -12l-5 -26q-2 -12 -14 -12zM361 225q31 34 31 94t-32.5 105.5t-89.5 45.5t-87 -34.5t-30 -94.5t30.5 -105t88.5 -45t89 34zM414.5 -223q49.5 36 49.5 88
t-32 78t-91 26h-100q-55 0 -85 -30t-30 -81t44.5 -84t119.5 -33t124.5 36z" />
    <glyph glyph-name="h" unicode="h" horiz-adv-x="638" 
d="M168 800q16 0 16 -23v-340q0 -5 3.5 -5t9.5 6q58 73 151.5 73t143.5 -49.5t50 -142.5v-253q0 -18 13 -28.5t33 -12.5l28 -2q12 -1 12 -14t-15 -13l-108 4l-90 -4q-15 0 -15 13t12 14l12 2q40 7 40 41v267q0 62 -35 96t-96.5 34t-105 -50.5t-43.5 -99.5v-247q0 -36 40 -41
l15 -2q12 -1 12 -14t-15 -13l-93 4l-108 -4q-15 0 -15 13t12 14l28 2q20 2 33 12.5t13 28.5v655q0 20 -8.5 27.5t-27.5 7.5h-34q-13 0 -13 13t13 15l130 16h2z" />
    <glyph glyph-name="i" unicode="i" horiz-adv-x="288" 
d="M241 23q12 -1 12 -14t-15 -13l-95 4l-108 -4q-15 0 -15 13t12 14l28 2q20 2 33 12.5t13 28.5v366q0 20 -8.5 27.5t-27.5 7.5h-34q-13 0 -13 13t13 15l130 16q18 2 18 -23v-422q0 -36 40 -41zM89 695q0 20 13.5 33t33.5 13t34 -13t14 -33t-14 -33t-34 -13t-33.5 13
t-13.5 33z" />
    <glyph glyph-name="j" unicode="j" horiz-adv-x="277" 
d="M91 695q0 20 13.5 33t33.5 13t34 -13t14 -33t-14 -33t-34 -13t-33.5 13t-13.5 33zM170 511q17 0 17 -23v-493q0 -190 -120 -267q-44 -28 -56.5 -28t-16.5 7q-7 11 -7 18t7 10q39 22 65 53q50 53 50 156v488q0 20 -8.5 27.5t-27.5 7.5h-34q-13 0 -13 13t13 15l129 16h2z
" />
    <glyph glyph-name="k" unicode="k" horiz-adv-x="564" 
d="M106 66v655q0 20 -8.5 27.5t-27.5 7.5h-34q-13 0 -13 13t13 15l130 16q18 0 18 -23v-481q0 -9 7 -9h42q8 0 14 6l141 148q9 11 9 17.5t-7.5 17.5t-7.5 16q0 11 14 11l63 -3l74 4q15 0 15 -12t-12 -14l-14 -2q-34 -5 -60 -32l-155 -157q-4 -4 -4 -7.5t4 -7.5l179 -206
q34 -39 53 -41l18 -2q12 -2 12 -13q0 -14 -14 -14q-75 4 -93 4l-61 -3q-15 0 -15 11q0 7 5.5 16.5t5.5 15.5t-9 16l-149 181q-6 6 -13 6h-33q-9 0 -9 -9v-168q0 -36 40 -41l17 -2q12 -1 12 -14t-15 -13l-95 4l-108 -4q-15 0 -15 13t12 14l28 2q20 2 33 12.5t13 28.5z" />
    <glyph glyph-name="l" unicode="l" horiz-adv-x="288" 
d="M168 800q16 0 16 -23v-711q0 -36 40 -41l17 -2q12 -1 12 -14t-15 -13l-95 4l-108 -4q-15 0 -15 13t12 14l28 2q20 2 33 12.5t13 28.5v655q0 20 -8.5 27.5t-27.5 7.5h-34q-13 0 -13 13t13 15l130 16h2z" />
    <glyph glyph-name="m" unicode="m" horiz-adv-x="901" 
d="M168 511q16 0 16 -23v-44q0 -5 3.5 -5t9.5 6q61 66 133 66q54 0 88.5 -19.5t55.5 -64.5q3 -6 6 -6t7 7q61 83 153 83q77 0 120 -48t43 -139v-258q0 -18 14.5 -28.5t34.5 -12.5l27 -2q12 -1 12 -14t-15 -13l-107 4l-91 -4q-15 0 -15 13t12 14l13 2q37 6 37 41v272
q0 125 -107 125q-50 0 -87 -48.5t-37 -99.5v-247q0 -39 35 -43l17 -2q11 -1 11 -14t-13 -13l-88 4l-88 -4q-15 0 -15 12.5t12 14.5l15 2q36 5 36 41v272q0 125 -106 125q-48 0 -87 -47t-39 -101v-249q0 -36 40 -41l17 -2q12 -1 12 -14t-15 -13l-95 4l-108 -4q-15 0 -15 13
t12 14l28 2q20 2 33 12.5t13 28.5v366q0 20 -8.5 27.5t-27.5 7.5h-34q-13 0 -13 13t13 15l130 16h2z" />
    <glyph glyph-name="n" unicode="n" horiz-adv-x="640" 
d="M168 511q16 0 16 -23v-51q0 -5 3.5 -5t9.5 6q58 73 151.5 73t143.5 -49.5t50 -142.5v-253q0 -18 14.5 -28.5t34.5 -12.5l27 -2q12 -1 12 -14t-15 -13l-107 4l-91 -4q-15 0 -15 13t12 14l13 2q37 6 37 41v267q0 62 -35 96t-96.5 34t-105 -50.5t-43.5 -99.5v-247
q0 -36 40 -41l17 -2q12 -1 12 -14t-15 -13l-95 4l-108 -4q-15 0 -15 13t12 14l28 2q20 2 33 12.5t13 28.5v366q0 20 -8.5 27.5t-27.5 7.5h-34q-13 0 -13 13t13 15l130 16h2z" />
    <glyph glyph-name="o" unicode="o" 
d="M487.5 439q68.5 -72 68.5 -189.5t-68 -189t-184.5 -71.5t-185 72t-68.5 188t70 189t184.5 73t183 -72zM436 389q-17 38 -50.5 60.5t-81.5 22.5q-83 0 -124 -55t-41 -144q0 -92 32 -163q17 -37 50.5 -59.5t79.5 -22.5q85 0 125.5 55t40.5 146t-31 160z" />
    <glyph glyph-name="p" unicode="p" horiz-adv-x="621" 
d="M484 218q0 120 -48 186t-119.5 66t-107 -38.5t-35.5 -81.5v-201q0 -48 42.5 -84.5t93.5 -36.5q80 0 127 50t47 140zM158 511q16 0 16 -23v-19q0 -12 8.5 -5t23.5 16.5t46 20t63 10.5q117 0 186.5 -70.5t69.5 -188.5t-73 -190.5t-178 -72.5q-77 0 -134 42q-5 4 -8.5 1
t-3.5 -10v-256q0 -36 40 -41l17 -2q12 -1 12 -14t-15 -13l-95 4l-108 -4q-15 0 -15 13t12 14l28 2q20 2 33 12.5t13 28.5v666q0 20 -8.5 27.5t-27.5 7.5h-34q-13 0 -13 13t13 15l130 16h2z" />
    <glyph glyph-name="q" unicode="q" horiz-adv-x="604" 
d="M531 497l-5 -63v-666q0 -18 13.5 -29.5t33.5 -13.5l29 -2q12 -1 12 -14t-14 -13l-110 4l-74 -4q-15 0 -15 12.5t12 14.5l11 2q26 4 26 37v258q0 13 -4.5 13t-6.5 -2q-53 -42 -130 -42q-116 0 -187.5 71t-71.5 193q0 104 76 181t180 77q69 0 130 -28q19 -9 33.5 -9
t27 19.5t21.5 19.5q13 0 13 -16zM448 100v259q0 51 -39.5 82t-92.5 31q-82 0 -130 -53.5t-48 -139.5q0 -117 50.5 -181t136.5 -64q43 0 83 22t40 44z" />
    <glyph glyph-name="r" unicode="r" horiz-adv-x="408" 
d="M168 511q16 0 16 -23v-54q0 -5 4 -5t9 6q23 29 63.5 52.5t72 23.5t48.5 -7t17 -16v-77q0 -15 -14 -15q-8 0 -21 15q-28 34 -72.5 34t-75.5 -42t-31 -121v-216q0 -36 53 -40l41 -3q12 -1 12 -14t-15 -13l-132 4l-108 -4q-15 0 -15 13t12 14l28 2q20 2 33 12.5t13 28.5v366
q0 20 -8.5 27.5t-27.5 7.5h-34q-13 0 -13 13t13 15l130 16h2z" />
    <glyph glyph-name="s" unicode="s" horiz-adv-x="442" 
d="M397 129q0 -63 -50.5 -101.5t-123 -38.5t-120.5 17t-48 38v87q0 18 13.5 18t18.5 -18q31 -103 130 -103q45 0 74 22.5t29 56.5t-27 58.5t-65.5 42.5t-77 38t-65.5 51.5t-27 72.5q0 61 47 101t125 40q52 0 95 -17.5t43 -37.5v-77q0 -18 -14 -18t-18 18q-27 93 -113 93
q-39 0 -66 -19.5t-27 -52t27.5 -57.5t67 -43.5t78.5 -39t66.5 -54t27.5 -77.5z" />
    <glyph glyph-name="t" unicode="t" horiz-adv-x="361" 
d="M360 48q0 -19 -40.5 -39t-81.5 -20q-73 0 -104.5 34.5t-31.5 115.5v300q0 11 -13 11h-61q-5 0 -9 3.5t-3 8.5l3 26q2 12 12 12h60q9 0 9 11l9 139q1 19 19 19q14 0 19 -15l33 -141q3 -13 15 -13h149q14 0 11 -12l-3 -26q-2 -12 -12 -12h-152q-8 0 -8 -11v-310
q0 -94 73 -94q33 0 65 12l32 12q10 0 10 -11z" />
    <glyph glyph-name="u" unicode="u" horiz-adv-x="628" 
d="M535 458v-367q0 -32 20 -51.5t48 -19.5q15 0 15 -12q0 -19 -39 -19q-59 0 -103 49q-3 3 -6 7t-5 7q-4 5 -8.5 5t-13.5 -8q-68 -60 -154.5 -60t-138.5 50t-52 142v253q0 20 -8.5 28t-26.5 8h-34q-5 0 -9.5 4t-4.5 10q0 12 14 14l132 13h5q20 0 20 -16q0 -2 -5 -12t-5 -25
v-293q0 -62 38.5 -97.5t99 -35.5t102 45t41.5 102v255q0 20 -8.5 28t-26.5 8h-44q-5 0 -9.5 4t-4.5 10q0 12 14 14l140 13h5q20 0 20 -16q0 -2 -4 -12t-4 -25z" />
    <glyph glyph-name="v" unicode="v" horiz-adv-x="536" 
d="M522 504q13 0 13 -12t-11 -14l-19 -3q-28 -5 -42 -38l-179 -439q-4 -9 -16.5 -9t-16.5 9l-179 442q-12 30 -41 35l-19 3q-11 2 -11 14t14 12l99 -4l96 4q17 0 17 -12t-13 -14l-21 -2q-36 -3 -36 -26q0 -8 2 -12l122 -322q2 -5 5.5 -5t5.5 4l127 323q4 9 4 17q0 18 -31 21
l-20 2q-12 2 -12 14t14 12l76 -4z" />
    <glyph glyph-name="w" unicode="w" horiz-adv-x="812" 
d="M596 -2q-4 -9 -16.5 -9t-16.5 9l-154 382q-3 5 -6 5q-7 0 -10 -9l-147 -378q-4 -9 -16.5 -9t-16.5 9l-141 442q-10 30 -41 35l-19 3q-11 2 -11 14t14 12l97 -4l96 4q17 0 17 -12t-13 -14l-21 -2q-35 -3 -35 -29q0 -6 1 -9l91 -311q2 -4 5 -4t4 6l141 355q5 13 25 13
t25 -13l144 -354q2 -3 5 -3t4 5l97 306q2 8 2 11q0 24 -31 27l-18 2q-12 2 -12 14t14 12l74 -4l71 4q13 0 13 -12t-11 -14l-19 -3q-31 -5 -42 -38z" />
    <glyph glyph-name="x" unicode="x" horiz-adv-x="551" 
d="M228 234q3 3 3 8.5t-3 8.5l-134 188q-12 18 -22.5 25.5t-27.5 9.5l-30 4q-11 2 -11 14t14 12l112 -4l90 4q15 0 15 -12t-12 -14l-11 -1q-28 -2 -28 -24q0 -8 5 -14l90 -126l6 -3q3 0 6 4l98 125q8 9 8 18q0 17 -35 21q-12 2 -12 14t15 12l76 -4l81 4q14 0 14 -12t-12 -14
l-29 -4q-26 -3 -52 -37l-125 -160q-3 -3 -3 -7.5t2 -8.5l143 -200q12 -18 22.5 -25.5t27.5 -9.5l30 -4q11 -2 11 -14t-14 -12l-112 4l-90 -4q-15 0 -15 12t12 14l11 1q28 2 28 24q0 8 -5 14l-98 136q-3 4 -6 4t-6 -4l-107 -136q-8 -9 -8 -18q0 -17 35 -21q12 -2 12 -14
t-15 -12l-76 4l-81 -4q-14 0 -14 12t12 14l29 4q26 3 52 37z" />
    <glyph glyph-name="y" unicode="y" horiz-adv-x="534" 
d="M413 453q0 19 -27 23l-18 2q-12 2 -12 14t14 12l78 -4l72 4q13 0 13 -12t-11 -14l-19 -3q-33 -5 -47 -39l-214 -495q-69 -156 -140 -202q-16 -10 -23 -10t-9 2l-30 38q-4 5 -4 12t6 11q32 16 48 26.5t42 35.5q44 44 103 178q3 5 3 12t-3 13l-158 382q-11 28 -46 36l-19 3
q-11 2 -11 14t14 12l99 -4l99 4q17 0 17 -12t-13 -14l-21 -2q-19 -1 -27 -12t-2 -25l113 -295q1 -2 4.5 -2.5t5.5 4.5l120 293q3 8 3 14z" />
    <glyph glyph-name="z" unicode="z" horiz-adv-x="472" 
d="M416 0h-379q-12 0 -12 11v9q0 10 5 17l290 416q6 10 -6 10h-132q-82 0 -103 -64q-4 -18 -19 -18q-7 0 -11 5.5t-3 12.5l8 70q3 31 27 31h334q13 0 13 -9v-10q0 -6 -13 -25l-277 -401q-4 -5 -3.5 -10.5t6.5 -5.5h173q37 0 65 22t40 60q6 17 19 17q6 0 10 -5.5t3 -11.5
l-9 -89q-3 -32 -26 -32z" />
    <glyph glyph-name="braceleft" unicode="{" horiz-adv-x="396" 
d="M20 268v17q0 13 13 13h11q48 1 64 27.5t16 88.5v189q0 172 170 172h29q13 0 13 -13v-17q0 -13 -13 -13h-29q-52 0 -73.5 -31.5t-21.5 -94.5v-189q0 -52 -20.5 -90.5t-60.5 -50.5q40 -11 60.5 -49.5t20.5 -90.5v-189q0 -63 21.5 -94.5t73.5 -31.5h29q13 0 13 -13v-17
q0 -13 -13 -13h-29q-170 0 -170 172v189q0 62 -16 89t-64 27h-11q-13 0 -13 13z" />
    <glyph glyph-name="bar" unicode="|" horiz-adv-x="309" 
d="M120 -262v1050q0 12 11 12h47q11 0 11 -12v-1050q0 -12 -11 -12h-47q-11 0 -11 12z" />
    <glyph glyph-name="braceright" unicode="}" horiz-adv-x="416" 
d="M376 285v-17q0 -13 -13 -13h-11q-48 0 -64 -27t-16 -89v-189q0 -172 -170 -172h-29q-13 0 -13 13v17q0 13 13 13h29q52 0 73.5 31.5t21.5 94.5v189q0 52 20.5 90.5t60.5 49.5q-40 12 -60.5 50.5t-20.5 90.5v189q0 63 -21.5 94.5t-73.5 31.5h-29q-13 0 -13 13v17
q0 13 13 13h29q170 0 170 -172v-189q0 -62 16 -88.5t64 -27.5h11q13 0 13 -13z" />
    <glyph glyph-name="asciitilde" unicode="~" horiz-adv-x="639" 
d="M209 298q-62 0 -108 -65q-4 -6 -8.5 -6t-8.5 2l-28 18q-6 3 -6 7q0 5 5 14q60 97 161 97q47 0 112 -32.5t102 -32.5q62 0 108 65q4 6 8.5 6t8.5 -2l28 -18q6 -3 6 -7q0 -5 -5 -14q-60 -97 -161 -97q-44 0 -112.5 32.5t-101.5 32.5z" />
    <glyph glyph-name="uni00A0" unicode="&#xa0;" horiz-adv-x="230" 
 />
    <glyph glyph-name="exclamdown" unicode="&#xa1;" horiz-adv-x="263" 
d="M82 -168l32 437q0 11 13 11h10q12 0 13 -11q6 -89 19 -254.5t13 -185t-15 -30t-35.5 -10.5t-35 11t-14.5 32zM88 406q-18 18 -18 43.5t18.5 43.5t43.5 18t43 -18t18 -43t-18 -43.5t-43.5 -18.5t-43.5 18z" />
    <glyph glyph-name="cent" unicode="&#xa2;" horiz-adv-x="525" 
d="M472 440v-87q0 -17 -14 -17q-12 0 -16 17q-23 84 -84 109l-91 -412q29 -10 62 -10q71 0 118 30q7 5 13 5t10.5 -4t4.5 -11.5t-8 -15.5q-55 -55 -162 -55q-18 0 -50 4l-25 -113q-2 -12 -14 -12h-23q-12 0 -10 12l27 124q-73 25 -116.5 89.5t-43.5 166.5t72.5 176.5
t178.5 74.5q14 0 21 -1l23 105q2 12 14 12h23q12 0 10 -12l-24 -110q46 -9 75 -27.5t29 -37.5zM138 269q0 -140 87 -199l88 402h-6q-75 0 -122 -55.5t-47 -147.5z" />
    <glyph glyph-name="sterling" unicode="&#xa3;" horiz-adv-x="540" 
d="M416 83q34 0 42 15.5t20 15.5t12 -16v-3l-5 -63q-1 -15 -9 -23.5t-18 -8.5h-377q-12 0 -12 11v16q0 5 16 21.5t34.5 36t34.5 54t16 75t-17 98.5h-81q-12 0 -12 11v27q0 11 12 11h66q-10 25 -15 42.5t-10.5 35t-8 27t-5.5 24.5q-5 24 -5 49q0 75 55.5 123.5t147.5 48.5
q67 0 121 -24t54 -45v-79q0 -7 -5 -12.5t-13.5 -5.5t-22 20t-27.5 43.5t-43.5 43.5t-74 20t-77.5 -30.5t-33 -87.5q0 -44 23 -111t28 -82h163q12 0 12 -11v-27q0 -11 -12 -11h-151q8 -35 8 -69.5t-19.5 -75.5t-39.5 -63l-20 -21h248z" />
    <glyph glyph-name="currency" unicode="&#xa4;" horiz-adv-x="638" 
d="M185 519q59 45 133.5 45t133.5 -45l68 68q4 4 8 4l8 -4l28 -28q4 -4 4 -8t-4 -8l-68 -68q45 -59 45 -133.5t-45 -133.5l68 -67q4 -4 4 -8t-4 -8l-28 -28q-4 -4 -8 -4l-8 4l-68 67q-58 -44 -133.5 -44t-133.5 44l-67 -67q-4 -4 -8 -4l-8 4l-28 28q-4 4 -4 8t4 8l67 67
q-44 58 -44 133.5t44 133.5l-67 68q-4 4 -4 8t4 8l28 28q4 4 8 4l8 -4zM319 507q-66 0 -112.5 -49t-46.5 -116t46.5 -116t112.5 -49t112.5 49t46.5 116t-46.5 116t-112.5 49z" />
    <glyph glyph-name="yen" unicode="&#xa5;" horiz-adv-x="712" 
d="M165 310h142l-209 324q-24 37 -58 40l-29 3q-11 2 -11 14t14 12l119 -3l106 2q15 0 15 -13t-12 -14l-19 -2q-18 -2 -23.5 -15t2.5 -24l174 -286q4 -7 9 -7t9 5l171 288q8 11 2.5 23.5t-23.5 15.5l-19 2q-14 2 -12 15q1 12 15 12l78 -2l97 3q14 0 14 -12t-11 -14l-29 -3
q-33 -3 -57 -40l-195 -312l-6 -12h152q12 0 12 -11v-27q0 -11 -12 -11h-160v-75h160q12 0 12 -11v-27q0 -11 -12 -11h-160v-71q0 -18 13 -28.5t32 -12.5l29 -2q12 0 12 -13q0 -6 -4.5 -10t-9.5 -4l-113 4l-100 -4q-14 0 -14 12.5t11 14.5l17 2q41 5 41 41v71h-160
q-12 0 -12 11v27q0 11 12 11h160v75h-160q-12 0 -12 11v27q0 11 12 11z" />
    <glyph glyph-name="brokenbar" unicode="&#xa6;" horiz-adv-x="309" 
d="M120 350v438q0 12 11 12h47q11 0 11 -12v-438q0 -12 -11 -12h-47q-11 0 -11 12zM120 -262v438q0 12 11 12h47q11 0 11 -12v-438q0 -12 -11 -12h-47q-11 0 -11 12z" />
    <glyph glyph-name="section" unicode="&#xa7;" horiz-adv-x="498" 
d="M407.5 433.5q30.5 -30.5 30.5 -72t-32.5 -73t-88.5 -45.5q57 -25 89 -54t32 -72q0 -58 -56 -93t-135.5 -35t-133 15.5t-53.5 34.5v80q0 6 4.5 11t11.5 5q14 0 19 -16q34 -94 144 -94q50 0 82 20.5t32 52t-30 53.5t-72.5 38.5t-85 34.5t-72.5 46.5t-30 69.5t34 74t94 45
q-61 25 -94.5 53t-33.5 71q0 56 52 92t138 36q57 0 105 -15.5t48 -34.5v-70q0 -16 -15.5 -16t-20.5 16q-29 85 -124 85q-44 0 -73.5 -18t-29.5 -48t30.5 -52.5t73.5 -39.5t86.5 -35.5t74 -49zM264 429l-18 1q-44 0 -73.5 -18t-29.5 -48t27.5 -51t80.5 -42q45 2 73.5 23
t28.5 50t-23 47.5t-66 37.5z" />
    <glyph glyph-name="dieresis" unicode="&#xa8;" horiz-adv-x="415" 
d="M60 659q0 22 15 37t37 15t37 -15t15 -37t-15 -37t-37 -15t-37 15t-15 37zM251 659q0 22 15 37t37 15t37 -15t15 -37t-15 -37t-37 -15t-37 15t-15 37z" />
    <glyph glyph-name="copyright" unicode="&#xa9;" horiz-adv-x="842" 
d="M116 350q0 -141 85 -228t220 -87t220 87t85 228t-85 228t-220 87t-220 -87t-85 -228zM60 350q0 158 102 259.5t259 101.5t259 -101.5t102 -259.5t-102 -259.5t-259 -101.5t-259 101.5t-102 259.5zM572 457q0 -5 -3.5 -10t-8.5 -5q-11 0 -17 15q-10 39 -38.5 61t-67.5 22
q-72 0 -114 -49t-42 -125t44.5 -135.5t112.5 -59.5t106 32q13 11 21 4.5t8 -11.5t-6 -11q-49 -55 -140 -55t-150 62.5t-59 157.5t60 157.5t159 62.5q51 0 93 -15t42 -29v-69z" />
    <glyph glyph-name="ordfeminine" unicode="&#xaa;" horiz-adv-x="447" 
d="M377 378q0 -15 -27 -15q-45 0 -71 33l-4 5q-48 -38 -94.5 -38t-75.5 24.5t-29 55.5t11.5 49t25.5 28.5t40 18.5q37 11 62 15t32 5.5t10 1.5q4 2 4 5v60q0 25 -16.5 39.5t-43 14.5t-49.5 -19t-32 -47q-2 -13 -14 -13q-5 0 -9 4t-4 10v49q0 11 4 15q41 32 106.5 32
t92.5 -29.5t27 -74.5v-174q0 -19 12 -31t27 -12t15 -12zM260 438v82q0 5 -2.5 5h-3.5q-113 -13 -113 -67q0 -25 16.5 -39.5t36.5 -14.5t36 7.5t23 15.5t7 11zM82 267h279q12 0 12 -11v-25q0 -11 -12 -11h-279q-12 0 -12 11v25q0 11 12 11z" />
    <glyph glyph-name="guillemotleft" unicode="&#xab;" horiz-adv-x="455" 
d="M50 246q0 4 3 9l135 185q4 8 8 8t15 -5t7 -15l-84 -182l84 -182q4 -10 -7 -15t-15 -5t-8 8l-135 185q-3 5 -3 9zM216 246q0 4 3 9l135 185q4 8 8 8t13.5 -4.5t9.5 -10.5q0 -2 -1 -5l-84 -182l84 -182q1 -3 1 -5q0 -6 -8 -10q-11 -5 -15 -5t-8 8l-135 185q-3 5 -3 9z" />
    <glyph glyph-name="logicalnot" unicode="&#xac;" horiz-adv-x="634" 
d="M554 404v-216q0 -12 -11 -12h-40q-11 0 -11 12v165h-420q-12 0 -12 11v40q0 11 12 11h470q12 0 12 -11z" />
    <glyph glyph-name="registered" unicode="&#xae;" horiz-adv-x="842" 
d="M378 158l26 -1q9 0 9 -11t-11 -11l-75 2q-44 -2 -60.5 -2t-18.5 9q0 12 10 13l18 1q21 2 21 22v340q0 19 -24 21l-18 2q-9 2 -9 12t11 10l83 -2h112q59 0 97 -30.5t38 -77.5t-33.5 -79t-77.5 -39q9 -4 13 -12l90 -144q12 -19 37 -23l11 -1q11 -2 11 -12t-12 -10
q-58 2 -73 2t-23 13l-102 169q-11 17 -24 17h-44q-6 0 -6 -4v-152q0 -20 24 -22zM526 450q0 37 -27 58.5t-67 21.5h-57q-21 0 -21 -21v-135q0 -5 4 -5h74q40 0 67 22t27 59zM116 350q0 -141 85 -228t220 -87t220 87t85 228t-85 228t-220 87t-220 -87t-85 -228zM60 350
q0 158 102 259.5t259 101.5t259 -101.5t102 -259.5t-102 -259.5t-259 -101.5t-259 101.5t-102 259.5z" />
    <glyph glyph-name="macron" unicode="&#xaf;" horiz-adv-x="420" 
d="M65 627v61h290v-61h-290z" />
    <glyph glyph-name="degree" unicode="&#xb0;" horiz-adv-x="408" 
d="M60 568q0 61 41.5 102t102.5 41t102.5 -41t41.5 -102t-41.5 -102t-102.5 -41t-102.5 41t-41.5 102zM120 568q0 -37 24 -62.5t60 -25.5t60 25.5t24 62.5t-24 62.5t-60 25.5t-60 -25.5t-24 -62.5z" />
    <glyph glyph-name="plusminus" unicode="&#xb1;" horiz-adv-x="714" 
d="M622 324h-234v-174q0 -12 -11 -12h-40q-11 0 -11 12v174h-234q-12 0 -12 11v40q0 11 12 11h234v174q0 12 11 12h40q11 0 11 -12v-174h234q12 0 12 -11v-40q0 -11 -12 -11zM622 18h-530q-12 0 -12 11v40q0 11 12 11h530q12 0 12 -11v-40q0 -11 -12 -11z" />
    <glyph glyph-name="twosuperior" unicode="&#xb2;" horiz-adv-x="361" 
d="M276 303h-202q-14 0 -14 13v5q0 4 6 16q44 66 72 104.5t42 60.5q41 61 41 103q0 61 -55 61q-42 0 -60 -54q-3 -15 -18 -15t-15 17v42q0 14 29.5 29t75.5 15t77 -27.5t31 -71.5q0 -46 -38 -97q-14 -18 -55.5 -68t-58.5 -73h120q14 0 18.5 8t12.5 8t12 -5t3 -12l-2 -36
q-1 -10 -7.5 -16.5t-14.5 -6.5z" />
    <glyph glyph-name="threesuperior" unicode="&#xb3;" horiz-adv-x="334" 
d="M249 484.5q25 -25.5 25 -66.5t-32 -72q-56 -54 -159 -54q-21 0 -21 18q0 16 20 18q127 11 127 91q0 65 -87 67q-24 0 -24 17q0 9 6 13q53 30 73.5 54.5t20.5 47.5q0 47 -45 47q-36 0 -55 -41q-9 -26 -23 -26q-6 0 -10.5 5.5t-4.5 10.5v42q0 15 27.5 29.5t70.5 14.5
t74 -20t31 -59q0 -51 -77 -102q38 -9 63 -34.5z" />
    <glyph glyph-name="acute" unicode="&#xb4;" horiz-adv-x="345" 
d="M216 734q10 9 24.5 9t27 -14.5t12.5 -34t-19 -29.5l-178 -87l-18 24z" />
    <glyph glyph-name="mu" unicode="&#xb5;" horiz-adv-x="628" 
d="M98 434q0 20 -8.5 28t-26.5 8h-34q-5 0 -9.5 4t-4.5 10q0 12 14 14l132 13h5q20 0 20 -16q0 -2 -5 -12t-5 -25v-299q2 -59 40.5 -93t98 -34t101 45t41.5 102v255q0 20 -8.5 28t-26.5 8h-44q-5 0 -9.5 4t-4.5 10q0 12 14 14l140 13h5q20 0 20 -16q0 -2 -4 -12t-4 -25v-367
q0 -32 20 -51.5t48 -19.5q15 0 15 -12q0 -19 -39 -19q-59 0 -103 49q-3 3 -6 7t-5 7q-4 5 -8.5 5t-13.5 -8q-68 -60 -144 -60t-123 29v-182q0 -12 -11 -12h-56q-11 0 -11 12v598z" />
    <glyph glyph-name="paragraph" unicode="&#xb6;" horiz-adv-x="719" 
d="M504 656h-100v-858q0 -12 -11 -12l-152 -4q-14 0 -14 13.5t11 13.5l42 2q19 1 32 12t13 29v439q0 12 -15 12h-28q-106 0 -169 58t-63 145.5t64.5 140.5t179.5 53h223l138 4q14 0 14 -14q0 -11 -11 -13l-29 -3q-46 -4 -46 -40v-782q0 -38 41 -41l29 -2q12 -1 12 -15
q0 -12 -15 -12l-135 4q-11 0 -11 12v858z" />
    <glyph glyph-name="periodcentered" unicode="&#xb7;" horiz-adv-x="243" 
d="M164.5 386q18.5 -18 18.5 -43.5t-18.5 -43.5t-43.5 -18t-43 18t-18 43t18 43.5t43 18.5t43.5 -18z" />
    <glyph glyph-name="cedilla" unicode="&#xb8;" horiz-adv-x="303" 
d="M202 -221.5q-36 -25.5 -86 -25.5q-25 0 -51 8v36q19 -6 45 -6t45 12.5t19 35.5t-19 38t-37 19l-19 4l42 100l35 -5l-21 -57q3 -1 9 -2.5t20 -8t25 -15.5q29 -24 29 -66t-36 -67.5z" />
    <glyph glyph-name="onesuperior" unicode="&#xb9;" horiz-adv-x="304" 
d="M202 331l28 -1q14 0 14 -14q0 -6 -4.5 -10.5t-10.5 -4.5l-74 2l-78 -2q-15 0 -15 14.5t14 14.5l28 1q22 2 22 16v299q0 16 -18 14l-35 -1q-13 0 -13 13t13 15q68 10 96 13q15 0 15 -13v-340q0 -14 18 -16z" />
    <glyph glyph-name="ordmasculine" unicode="&#xba;" horiz-adv-x="476" 
d="M360.5 662.5q45.5 -48.5 45.5 -126t-45.5 -125.5t-122.5 -48t-122.5 48.5t-45.5 125t46.5 125.5t122.5 49t121.5 -48.5zM326 614q-15 35 -36 49t-51 14q-52 0 -78 -34.5t-26 -93.5t23.5 -105.5t77.5 -46.5t79.5 34.5t25.5 91t-15 91.5zM82 267h312q12 0 12 -11v-25
q0 -11 -12 -11h-312q-12 0 -12 11v25q0 11 12 11z" />
    <glyph glyph-name="guillemotright" unicode="&#xbb;" horiz-adv-x="455" 
d="M405 246q0 -4 -3 -9l-135 -185q-4 -8 -8 -8t-15 5t-7 15l84 182l-84 182q-4 10 7 15t15 5t8 -8l135 -185q3 -5 3 -9zM239 246q0 -4 -3 -9l-135 -185q-4 -8 -8 -8t-13.5 4.5t-9.5 10.5q0 2 1 5l84 182l-84 182q-1 3 -1 5q0 6 8 10q11 5 15 5t8 -8l135 -185q3 -5 3 -9z" />
    <glyph glyph-name="onequarter" unicode="&#xbc;" horiz-adv-x="759" 
d="M202 331l28 -1q14 0 14 -14q0 -6 -4.5 -10.5t-10.5 -4.5l-74 2l-78 -2q-15 0 -15 14.5t14 14.5l28 1q22 2 22 16v299q0 16 -18 14l-35 -1q-13 0 -13 13t13 15q68 10 96 13q15 0 15 -13v-340q0 -14 18 -16zM699 122q0 -17 -17 -17h-33v-87q0 -18 -17 -18h-23q-19 0 -19 18
v87h-160q-14 0 -14 13v6q0 7 6 15l178 247q9 11 20 11h11q18 0 18 -20v-227h33q17 0 17 -16v-12zM590 150v156l-110 -156h110zM192 -23h-35q-8 0 -8 4t2 8l389 722q6 12 18 12h35q8 0 8 -4t-2 -8l-389 -722q-6 -12 -18 -12z" />
    <glyph glyph-name="onehalf" unicode="&#xbd;" horiz-adv-x="774" 
d="M192 -23h-35q-12 0 -6 12l389 722q6 12 18 12h35q12 0 6 -12l-389 -722q-6 -12 -18 -12zM689 0h-202q-14 0 -14 13v5q0 4 6 16q44 66 72 104.5t43 60.5q40 61 40 103q0 61 -55 61q-42 0 -60 -54q-3 -15 -18 -15t-15 17v42q0 14 29.5 29t75.5 15t77 -27.5t31 -71.5
q0 -46 -39 -97q-13 -18 -54.5 -68t-58.5 -73h120q14 0 18.5 8t12.5 8q17 0 15 -16l-2 -37q-1 -10 -7.5 -16.5t-14.5 -6.5zM202 331l28 -1q14 0 14 -14q0 -6 -4.5 -10.5t-10.5 -4.5l-74 2l-78 -2q-15 0 -15 14.5t14 14.5l28 1q22 2 22 16v299q0 16 -18 14l-35 -1
q-13 0 -13 13t13 15q68 10 96 13q15 0 15 -13v-340q0 -14 18 -16z" />
    <glyph glyph-name="threequarters" unicode="&#xbe;" horiz-adv-x="784" 
d="M724 122q0 -17 -17 -17h-33v-87q0 -18 -17 -18h-23q-19 0 -19 18v87h-160q-14 0 -14 13v6q0 7 6 15l178 247q9 11 20 11h11q18 0 18 -20v-227h33q17 0 17 -16v-12zM615 150v156l-110 -156h110zM249 484.5q25 -25.5 25 -66.5t-32 -72q-56 -54 -159 -54q-21 0 -21 18
q0 16 20 18q127 11 127 91q0 65 -87 67q-24 0 -24 17q0 9 6 13q53 30 73.5 54.5t20.5 47.5q0 47 -45 47q-36 0 -55 -41q-9 -26 -23 -26q-6 0 -10.5 5.5t-4.5 10.5v42q0 15 27.5 29.5t70.5 14.5t74 -20t31 -59q0 -51 -77 -102q38 -9 63 -34.5zM218 -23h-35q-8 0 -8 4t2 8
l389 722q6 12 18 12h35q8 0 8 -4t-2 -8l-389 -722q-6 -12 -18 -12z" />
    <glyph glyph-name="questiondown" unicode="&#xbf;" horiz-adv-x="380" 
d="M220 280h10q12 0 13.5 -15t1.5 -39t-8.5 -60.5t-27 -68t-37.5 -59.5q-48 -68 -48 -115t23.5 -71t62.5 -24t62 23.5t40.5 62.5t31.5 39q7 0 11.5 -6t4.5 -11v-79q0 -22 -44.5 -45t-116 -23t-120.5 35t-49 103q0 64 57 126q24 26 49 54q60 67 71 162q0 11 13 11zM182 406
q-18 18 -18 43.5t18.5 43.5t43.5 18t43 -18t18 -43t-18 -43.5t-43.5 -18.5t-43.5 18z" />
    <glyph glyph-name="Agrave" unicode="&#xc0;" horiz-adv-x="717" 
d="M227 275h223q11 0 7 12l-119 306l-119 -308q-3 -10 8 -10zM134 66q-2 -6 -2 -13.5t8 -17t22 -10.5l22 -2q13 -2 13 -13q0 -14 -15 -14l-87 4l-91 -4q-14 0 -14 13.5t11 13.5l19 2q43 5 58 41l257 633q4 12 23.5 12t24.5 -12l256 -633q13 -37 57 -41l21 -2q4 0 7 -4t3 -8
q0 -15 -14 -15l-115 4l-103 -4q-14 0 -14 12q0 14 12 15l23 2q13 1 21.5 10t8.5 17t-3 14l-59 153q-3 10 -16 10h-259q-12 0 -16 -10zM250 865q-19 10 -19 29.5t12.5 34t26.5 14.5t25 -9l151 -132l-18 -24z" />
    <glyph glyph-name="Aacute" unicode="&#xc1;" horiz-adv-x="717" 
d="M227 275h223q11 0 7 12l-119 306l-119 -308q-3 -10 8 -10zM134 66q-2 -6 -2 -13.5t8 -17t22 -10.5l22 -2q13 -2 13 -13q0 -14 -15 -14l-87 4l-91 -4q-14 0 -14 13.5t11 13.5l19 2q43 5 58 41l257 633q4 12 23.5 12t24.5 -12l256 -633q13 -37 57 -41l21 -2q4 0 7 -4t3 -8
q0 -15 -14 -15l-115 4l-103 -4q-14 0 -14 12q0 14 12 15l23 2q13 1 21.5 10t8.5 17t-3 14l-59 153q-3 10 -16 10h-259q-12 0 -16 -10zM432 934q10 9 24.5 9t27 -14.5t12.5 -34t-19 -29.5l-178 -87l-18 24z" />
    <glyph glyph-name="Acircumflex" unicode="&#xc2;" horiz-adv-x="717" 
d="M227 275h223q11 0 7 12l-119 306l-119 -308q-3 -10 8 -10zM134 66q-2 -6 -2 -13.5t8 -17t22 -10.5l22 -2q13 -2 13 -13q0 -14 -15 -14l-87 4l-91 -4q-14 0 -14 13.5t11 13.5l19 2q43 5 58 41l257 633q4 12 23.5 12t24.5 -12l256 -633q13 -37 57 -41l21 -2q4 0 7 -4t3 -8
q0 -15 -14 -15l-115 4l-103 -4q-14 0 -14 12q0 14 12 15l23 2q13 1 21.5 10t8.5 17t-3 14l-59 153q-3 10 -16 10h-259q-12 0 -16 -10zM221 792l-18 23l155 137l155 -137l-18 -23l-137 76z" />
    <glyph glyph-name="Atilde" unicode="&#xc3;" horiz-adv-x="717" 
d="M227 275h223q11 0 7 12l-119 306l-119 -308q-3 -10 8 -10zM134 66q-2 -6 -2 -13.5t8 -17t22 -10.5l22 -2q13 -2 13 -13q0 -14 -15 -14l-87 4l-91 -4q-14 0 -14 13.5t11 13.5l19 2q43 5 58 41l257 633q4 12 23.5 12t24.5 -12l256 -633q13 -37 57 -41l21 -2q4 0 7 -4t3 -8
q0 -15 -14 -15l-115 4l-103 -4q-14 0 -14 12q0 14 12 15l23 2q13 1 21.5 10t8.5 17t-3 14l-59 153q-3 10 -16 10h-259q-12 0 -16 -10zM421 810q-27 0 -72 23t-70.5 23t-41.5 -12t-21 -24l-5 -12l-32 15q5 26 35 59t81 33q29 0 78 -23t69.5 -23t36.5 12t21 24l5 12l32 -15
q-5 -26 -35 -59t-81 -33z" />
    <glyph glyph-name="Adieresis" unicode="&#xc4;" horiz-adv-x="717" 
d="M227 275h223q11 0 7 12l-119 306l-119 -308q-3 -10 8 -10zM134 66q-2 -6 -2 -13.5t8 -17t22 -10.5l22 -2q13 -2 13 -13q0 -14 -15 -14l-87 4l-91 -4q-14 0 -14 13.5t11 13.5l19 2q43 5 58 41l257 633q4 12 23.5 12t24.5 -12l256 -633q13 -37 57 -41l21 -2q4 0 7 -4t3 -8
q0 -15 -14 -15l-115 4l-103 -4q-14 0 -14 12q0 14 12 15l23 2q13 1 21.5 10t8.5 17t-3 14l-59 153q-3 10 -16 10h-259q-12 0 -16 -10zM211 859q0 22 15 37t37 15t37 -15t15 -37t-15 -37t-37 -15t-37 15t-15 37zM402 859q0 22 15 37t37 15t37 -15t15 -37t-15 -37t-37 -15
t-37 15t-15 37z" />
    <glyph glyph-name="Aring" unicode="&#xc5;" horiz-adv-x="717" 
d="M227 275h223q11 0 7 12l-119 306l-119 -308q-3 -10 8 -10zM134 66q-2 -6 -2 -13.5t8 -17t22 -10.5l22 -2q13 -2 13 -13q0 -14 -15 -14l-87 4l-91 -4q-14 0 -14 13.5t11 13.5l19 2q43 5 58 41l257 633q4 12 23.5 12t24.5 -12l256 -633q13 -37 57 -41l21 -2q4 0 7 -4t3 -8
q0 -15 -14 -15l-115 4l-103 -4q-14 0 -14 12q0 14 12 15l23 2q13 1 21.5 10t8.5 17t-3 14l-59 153q-3 10 -16 10h-259q-12 0 -16 -10zM254 852q0 43 30 73t74 30t74 -30t30 -73t-30 -73t-74 -30t-74 30t-30 73zM303 852q0 -24 15.5 -40.5t39.5 -16.5t39 16.5t15 40.5
t-15 40.5t-39 16.5t-39.5 -16.5t-15.5 -40.5z" />
    <glyph glyph-name="AE" unicode="&#xc6;" horiz-adv-x="1113" 
d="M339 275h244q10 0 12 12v336l-260 -338q-7 -10 4 -10zM595 66v153q0 10 -12 10h-279q-13 0 -20 -10l-118 -153q-9 -12 -9 -25.5t16 -15.5l22 -2q13 -2 13 -13q0 -14 -15 -14l-98 4l-92 -4q-14 0 -14 13.5t11 13.5l19 2q51 6 79 41l495 626q8 12 28 12l108 -4h262
q19 0 31 -11.5t14 -28.5l14 -92q2 -18 -14.5 -18t-21.5 16q-15 48 -45 68t-83 20h-157q-22 0 -35.5 -12.5t-13.5 -34.5v-210q0 -13 13 -13h186q14 0 22 7t10.5 13t7.5 22l4 13q3 12 15 12t12 -14l-4 -85l4 -81q0 -13 -13 -15q-13 0 -14 12l-3 18q-9 52 -41 52h-187
q-12 0 -12 -14v-232q0 -21 13.5 -33.5t35.5 -12.5h165q52 0 89.5 25.5t52.5 74.5q5 16 16.5 16t16 -5.5t3.5 -12.5l-16 -104q-2 -17 -14.5 -28.5t-30.5 -11.5h-375l-113 -4q-14 0 -14 13.5t11 13.5l29 2q20 2 33 12.5t13 28.5z" />
    <glyph glyph-name="Ccedilla" unicode="&#xc7;" horiz-adv-x="683" 
d="M631 529q0 -7 -4.5 -13.5t-11.5 -6.5q-17 0 -22 20q-18 67 -67 105t-116 38q-121 0 -192.5 -83t-71.5 -212t75.5 -230t188.5 -101q65 0 97.5 12.5t44 18t29.5 17.5t20 13q18 11 25 3.5t7 -14.5t-8 -15q-34 -38 -70 -57q-65 -35 -155 -35q-156 0 -253 103t-97 259t99 258
t261 102q84 0 152.5 -23t68.5 -45v-114zM392 -221.5q-36 -25.5 -86 -25.5q-25 0 -51 8v36q19 -6 45 -6t45 12.5t19 35.5t-19 38t-37 19l-19 4l42 100l35 -5l-21 -57q3 -1 9 -2.5t20 -8t25 -15.5q29 -24 29 -66t-36 -67.5z" />
    <glyph glyph-name="Egrave" unicode="&#xc8;" horiz-adv-x="634" 
d="M532 0h-375l-113 -4q-14 0 -14 13.5t11 13.5l29 2q20 2 33 12.5t13 28.5v568q0 36 -46 40l-29 3q-11 0 -11 13.5t14 13.5l113 -4h355q19 0 31 -11.5t14 -28.5l14 -92q2 -18 -14.5 -18t-21.5 16q-15 48 -45 68t-83 20h-157q-22 0 -35.5 -12.5t-13.5 -34.5v-210
q0 -13 13 -13h186q14 0 22 7t10.5 13t7.5 22l4 13q3 12 15 12t12 -14l-4 -85l4 -81q0 -13 -13 -15q-12 0 -14 12l-3 18q-9 52 -41 52h-187q-12 0 -12 -14v-232q0 -21 13.5 -33.5t35.5 -12.5h165q52 0 89.5 25.5t52.5 74.5q5 16 16.5 16t16 -5.5t3.5 -12.5l-16 -104
q-2 -17 -14.5 -28.5t-30.5 -11.5zM208 865q-19 10 -19 29.5t12.5 34t26.5 14.5t25 -9l151 -132l-18 -24z" />
    <glyph glyph-name="Eacute" unicode="&#xc9;" horiz-adv-x="634" 
d="M532 0h-375l-113 -4q-14 0 -14 13.5t11 13.5l29 2q20 2 33 12.5t13 28.5v568q0 36 -46 40l-29 3q-11 0 -11 13.5t14 13.5l113 -4h355q19 0 31 -11.5t14 -28.5l14 -92q2 -18 -14.5 -18t-21.5 16q-15 48 -45 68t-83 20h-157q-22 0 -35.5 -12.5t-13.5 -34.5v-210
q0 -13 13 -13h186q14 0 22 7t10.5 13t7.5 22l4 13q3 12 15 12t12 -14l-4 -85l4 -81q0 -13 -13 -15q-12 0 -14 12l-3 18q-9 52 -41 52h-187q-12 0 -12 -14v-232q0 -21 13.5 -33.5t35.5 -12.5h165q52 0 89.5 25.5t52.5 74.5q5 16 16.5 16t16 -5.5t3.5 -12.5l-16 -104
q-2 -17 -14.5 -28.5t-30.5 -11.5zM380 934q11 9 25 9t26.5 -14.5t12.5 -34t-19 -29.5l-178 -87l-18 24z" />
    <glyph glyph-name="Ecircumflex" unicode="&#xca;" horiz-adv-x="634" 
d="M532 0h-375l-113 -4q-14 0 -14 13.5t11 13.5l29 2q20 2 33 12.5t13 28.5v568q0 36 -46 40l-29 3q-11 0 -11 13.5t14 13.5l113 -4h355q19 0 31 -11.5t14 -28.5l14 -92q2 -18 -14.5 -18t-21.5 16q-15 48 -45 68t-83 20h-157q-22 0 -35.5 -12.5t-13.5 -34.5v-210
q0 -13 13 -13h186q14 0 22 7t10.5 13t7.5 22l4 13q3 12 15 12t12 -14l-4 -85l4 -81q0 -13 -13 -15q-12 0 -14 12l-3 18q-9 52 -41 52h-187q-12 0 -12 -14v-232q0 -21 13.5 -33.5t35.5 -12.5h165q52 0 89.5 25.5t52.5 74.5q5 16 16.5 16t16 -5.5t3.5 -12.5l-16 -104
q-2 -17 -14.5 -28.5t-30.5 -11.5zM180 792l-18 23l155 137l155 -137l-18 -23l-137 76z" />
    <glyph glyph-name="Edieresis" unicode="&#xcb;" horiz-adv-x="634" 
d="M532 0h-375l-113 -4q-14 0 -14 13.5t11 13.5l29 2q20 2 33 12.5t13 28.5v568q0 36 -46 40l-29 3q-11 0 -11 13.5t14 13.5l113 -4h355q19 0 31 -11.5t14 -28.5l14 -92q2 -18 -14.5 -18t-21.5 16q-15 48 -45 68t-83 20h-157q-22 0 -35.5 -12.5t-13.5 -34.5v-210
q0 -13 13 -13h186q14 0 22 7t10.5 13t7.5 22l4 13q3 12 15 12t12 -14l-4 -85l4 -81q0 -13 -13 -15q-12 0 -14 12l-3 18q-9 52 -41 52h-187q-12 0 -12 -14v-232q0 -21 13.5 -33.5t35.5 -12.5h165q52 0 89.5 25.5t52.5 74.5q5 16 16.5 16t16 -5.5t3.5 -12.5l-16 -104
q-2 -17 -14.5 -28.5t-30.5 -11.5zM169 859q0 22 15 37t37 15t37 -15t15 -37t-15 -37t-37 -15t-37 15t-15 37zM360 859q0 22 15 37t37 15t37 -15t15 -37t-15 -37t-37 -15t-37 15t-15 37z" />
    <glyph glyph-name="Igrave" unicode="&#xcc;" horiz-adv-x="317" 
d="M61 -4q-14 0 -14 12.5t11 14.5l17 2q41 5 41 41v568q0 36 -46 40l-29 3q-11 2 -11 13q0 14 14 14l113 -4l99 4q15 0 15 -12q0 -14 -13 -15l-17 -3q-40 -7 -40 -40v-568q0 -18 13 -28.5t32 -12.5l29 -2q12 0 12 -13q0 -6 -4.5 -10t-9.5 -4l-113 4zM50 865q-19 10 -19 29.5
t12.5 34t26.5 14.5t25 -9l151 -132l-18 -24z" />
    <glyph glyph-name="Iacute" unicode="&#xcd;" horiz-adv-x="317" 
d="M61 -4q-14 0 -14 12.5t11 14.5l17 2q41 5 41 41v568q0 36 -46 40l-29 3q-11 2 -11 13q0 14 14 14l113 -4l99 4q15 0 15 -12q0 -14 -13 -15l-17 -3q-40 -7 -40 -40v-568q0 -18 13 -28.5t32 -12.5l29 -2q12 0 12 -13q0 -6 -4.5 -10t-9.5 -4l-113 4zM222 934q10 9 24.5 9
t27 -14.5t12.5 -34t-19 -29.5l-178 -87l-18 24z" />
    <glyph glyph-name="Icircumflex" unicode="&#xce;" horiz-adv-x="317" 
d="M61 -4q-14 0 -14 12.5t11 14.5l17 2q41 5 41 41v568q0 36 -46 40l-29 3q-11 2 -11 13q0 14 14 14l113 -4l99 4q15 0 15 -12q0 -14 -13 -15l-17 -3q-40 -7 -40 -40v-568q0 -18 13 -28.5t32 -12.5l29 -2q12 0 12 -13q0 -6 -4.5 -10t-9.5 -4l-113 4zM22 792l-18 23l155 137
l155 -137l-18 -23l-137 76z" />
    <glyph glyph-name="Idieresis" unicode="&#xcf;" horiz-adv-x="317" 
d="M61 -4q-14 0 -14 12.5t11 14.5l17 2q41 5 41 41v568q0 36 -46 40l-29 3q-11 2 -11 13q0 14 14 14l113 -4l99 4q15 0 15 -12q0 -14 -13 -15l-17 -3q-40 -7 -40 -40v-568q0 -18 13 -28.5t32 -12.5l29 -2q12 0 12 -13q0 -6 -4.5 -10t-9.5 -4l-113 4zM11 859q0 22 15 37
t37 15t37 -15t15 -37t-15 -37t-37 -15t-37 15t-15 37zM202 859q0 22 15 37t37 15t37 -15t15 -37t-15 -37t-37 -15t-37 15t-15 37z" />
    <glyph glyph-name="Eth" unicode="&#xd0;" horiz-adv-x="741" 
d="M43 317h73v317q0 36 -46 40l-29 3q-11 2 -11 13q0 14 14 14l125 -4h172q160 0 255 -92.5t95 -245.5t-98.5 -257.5t-251.5 -104.5h-172l-125 -5q-14 0 -14 13.5t11 13.5l29 2q20 2 33 12.5t13 28.5v203h-73q-12 0 -12 11v27q0 11 12 11zM538 550q-30 48 -81 76t-117 28
h-90q-22 0 -35.5 -12t-13.5 -35v-290h142q12 0 12 -11v-27q0 -11 -12 -11h-142v-176q0 -21 13.5 -33.5t35.5 -12.5h95q115 0 184 79t69 205t-60 220z" />
    <glyph glyph-name="Ntilde" unicode="&#xd1;" horiz-adv-x="762" 
d="M613 149v485q0 35 -45 40l-29 3q-11 2 -11 14t14 12l97 -3l78 3q15 0 15 -12t-13 -14l-17 -3q-40 -7 -40 -40v-633q0 -12 -11 -12h-13q-25 0 -43 24l-421 539q-2 2 -6 2t-4 -10v-478q0 -33 40 -40l17 -3q13 -2 13 -14t-15 -12l-78 3l-97 -3q-14 0 -14 12t11 14l29 3
q46 5 46 40v568q0 35 -40 40l-18 2q-12 2 -12 14.5t15 12.5l80 -3q29 -1 44 -19l417 -535q3 -3 7 -3t4 6zM444 810q-27 0 -72 23t-70.5 23t-41.5 -12t-21 -24l-5 -12l-32 15q5 26 35 59t81 33q29 0 78 -23t69.5 -23t36.5 12t21 24l5 12l32 -15q-5 -26 -35 -59t-81 -33z" />
    <glyph glyph-name="Ograve" unicode="&#xd2;" horiz-adv-x="800" 
d="M654.5 610.5q95.5 -100.5 95.5 -258.5t-97.5 -260.5t-253 -102.5t-252.5 102t-97 258.5t97 259t254.5 102.5t253 -100.5zM598 554q-29 51 -80 81t-119 30q-122 0 -188.5 -74.5t-66.5 -202.5q0 -133 60 -238q29 -52 81 -83.5t119 -31.5q119 0 185.5 78t66.5 210t-58 231z
M311 865q-19 10 -19 29.5t12.5 34t26.5 14.5t25 -9l151 -132l-18 -24z" />
    <glyph glyph-name="Oacute" unicode="&#xd3;" horiz-adv-x="800" 
d="M654.5 610.5q95.5 -100.5 95.5 -258.5t-97.5 -260.5t-253 -102.5t-252.5 102t-97 258.5t97 259t254.5 102.5t253 -100.5zM598 554q-29 51 -80 81t-119 30q-122 0 -188.5 -74.5t-66.5 -202.5q0 -133 60 -238q29 -52 81 -83.5t119 -31.5q119 0 185.5 78t66.5 210t-58 231z
M443 934q10 9 24.5 9t27 -14.5t12.5 -34t-19 -29.5l-178 -87l-18 24z" />
    <glyph glyph-name="Ocircumflex" unicode="&#xd4;" horiz-adv-x="800" 
d="M654.5 610.5q95.5 -100.5 95.5 -258.5t-97.5 -260.5t-253 -102.5t-252.5 102t-97 258.5t97 259t254.5 102.5t253 -100.5zM598 554q-29 51 -80 81t-119 30q-122 0 -188.5 -74.5t-66.5 -202.5q0 -133 60 -238q29 -52 81 -83.5t119 -31.5q119 0 185.5 78t66.5 210t-58 231z
M263 792l-18 23l155 137l155 -137l-18 -23l-137 76z" />
    <glyph glyph-name="Otilde" unicode="&#xd5;" horiz-adv-x="800" 
d="M654.5 610.5q95.5 -100.5 95.5 -258.5t-97.5 -260.5t-253 -102.5t-252.5 102t-97 258.5t97 259t254.5 102.5t253 -100.5zM598 554q-29 51 -80 81t-119 30q-122 0 -188.5 -74.5t-66.5 -202.5q0 -133 60 -238q29 -52 81 -83.5t119 -31.5q119 0 185.5 78t66.5 210t-58 231z
M463 810q-27 0 -72 23t-70.5 23t-41.5 -12t-21 -24l-5 -12l-32 15q5 26 35 59t81 33q29 0 78 -23t69.5 -23t36.5 12t21 24l5 12l32 -15q-5 -26 -35 -59t-81 -33z" />
    <glyph glyph-name="Odieresis" unicode="&#xd6;" horiz-adv-x="800" 
d="M654.5 610.5q95.5 -100.5 95.5 -258.5t-97.5 -260.5t-253 -102.5t-252.5 102t-97 258.5t97 259t254.5 102.5t253 -100.5zM598 554q-29 51 -80 81t-119 30q-122 0 -188.5 -74.5t-66.5 -202.5q0 -133 60 -238q29 -52 81 -83.5t119 -31.5q119 0 185.5 78t66.5 210t-58 231z
M252 859q0 22 15 37t37 15t37 -15t15 -37t-15 -37t-37 -15t-37 15t-15 37zM443 859q0 22 15 37t37 15t37 -15t15 -37t-15 -37t-37 -15t-37 15t-15 37z" />
    <glyph glyph-name="multiply" unicode="&#xd7;" horiz-adv-x="618" 
d="M60 86q0 4 4 8l201 201l-201 201q-4 4 -4 8t4 8l28 28q4 4 8 4l8 -4l201 -201l201 201q4 4 8 4l8 -4l28 -28q4 -4 4 -8t-4 -8l-201 -201l201 -201q4 -4 4 -8t-4 -8l-28 -28q-4 -4 -8 -4l-8 4l-201 201l-201 -201q-4 -4 -8 -4l-8 4l-28 28q-4 4 -4 8z" />
    <glyph glyph-name="Oslash" unicode="&#xd8;" horiz-adv-x="800" 
d="M666 598q84 -98 84 -251t-97.5 -255.5t-244 -102.5t-239.5 80l-53 -57q-12 -12 -20 -12h-42q-7 0 -7 6q0 3 3 6l85 91q-85 101 -85 252t97 253.5t253 102.5q138 0 231 -79l53 56q12 12 20 12h42q7 0 7 -6q0 -3 -3 -6zM210.5 590.5q-66.5 -74.5 -66.5 -203t50 -221.5
l387 412q-67 87 -185.5 87t-185 -74.5zM589.5 113q66.5 78 66.5 204.5t-48 219.5l-387 -413q68 -89 185 -89t183.5 78z" />
    <glyph glyph-name="Ugrave" unicode="&#xd9;" horiz-adv-x="773" 
d="M116 257v377q0 36 -46 40l-29 3q-11 2 -11 13q0 14 14 14l113 -4l99 4q15 0 15 -12q0 -14 -13 -15l-17 -3q-40 -7 -40 -40v-378q0 -93 56 -145t147.5 -52t148 53t56.5 144v378q0 33 -40 40l-17 3q-13 2 -13 14t15 12l78 -3l97 3q14 0 14 -12t-11 -14l-29 -3
q-46 -5 -46 -40v-377q0 -123 -75.5 -195.5t-193.5 -72.5t-195 75t-77 193zM258 865q-19 10 -19 29.5t12.5 34t26.5 14.5t25 -9l151 -132l-18 -24z" />
    <glyph glyph-name="Uacute" unicode="&#xda;" horiz-adv-x="773" 
d="M116 257v377q0 36 -46 40l-29 3q-11 2 -11 13q0 14 14 14l113 -4l99 4q15 0 15 -12q0 -14 -13 -15l-17 -3q-40 -7 -40 -40v-378q0 -93 56 -145t147.5 -52t148 53t56.5 144v378q0 33 -40 40l-17 3q-13 2 -13 14t15 12l78 -3l97 3q14 0 14 -12t-11 -14l-29 -3
q-46 -5 -46 -40v-377q0 -123 -75.5 -195.5t-193.5 -72.5t-195 75t-77 193zM500 934q10 9 24.5 9t27 -14.5t12.5 -34t-19 -29.5l-178 -87l-18 24z" />
    <glyph glyph-name="Ucircumflex" unicode="&#xdb;" horiz-adv-x="773" 
d="M116 257v377q0 36 -46 40l-29 3q-11 2 -11 13q0 14 14 14l113 -4l99 4q15 0 15 -12q0 -14 -13 -15l-17 -3q-40 -7 -40 -40v-378q0 -93 56 -145t147.5 -52t148 53t56.5 144v378q0 33 -40 40l-17 3q-13 2 -13 14t15 12l78 -3l97 3q14 0 14 -12t-11 -14l-29 -3
q-46 -5 -46 -40v-377q0 -123 -75.5 -195.5t-193.5 -72.5t-195 75t-77 193zM264 792l-18 23l155 137l155 -137l-18 -23l-137 76z" />
    <glyph glyph-name="Udieresis" unicode="&#xdc;" horiz-adv-x="773" 
d="M116 257v377q0 36 -46 40l-29 3q-11 2 -11 13q0 14 14 14l113 -4l99 4q15 0 15 -12q0 -14 -13 -15l-17 -3q-40 -7 -40 -40v-378q0 -93 56 -145t147.5 -52t148 53t56.5 144v378q0 33 -40 40l-17 3q-13 2 -13 14t15 12l78 -3l97 3q14 0 14 -12t-11 -14l-29 -3
q-46 -5 -46 -40v-377q0 -123 -75.5 -195.5t-193.5 -72.5t-195 75t-77 193zM254 859q0 22 15 37t37 15t37 -15t15 -37t-15 -37t-37 -15t-37 15t-15 37zM445 859q0 22 15 37t37 15t37 -15t15 -37t-15 -37t-37 -15t-37 15t-15 37z" />
    <glyph glyph-name="Yacute" unicode="&#xdd;" horiz-adv-x="712" 
d="M703 703q14 0 14 -12t-11 -14l-29 -3q-33 -3 -57 -40l-195 -312q-12 -21 -14 -47v-209q0 -18 13 -28.5t32 -12.5l29 -2q12 0 12 -13q0 -6 -4.5 -10t-9.5 -4l-113 4l-100 -4q-14 0 -14 12.5t11 14.5l17 2q41 5 41 41v195q0 19 -9 35l-218 338q-24 37 -58 40l-29 3
q-11 2 -11 14t14 12l119 -3l106 2q15 0 15 -13t-12 -14l-19 -2q-18 -2 -23.5 -15t2.5 -24l174 -286q4 -7 9 -7t9 5l171 288q8 11 2.5 23.5t-23.5 15.5l-19 2q-14 2 -12 15q1 12 15 12l78 -2zM459 934q10 9 24.5 9t27 -14.5t12.5 -34t-19 -29.5l-178 -87l-18 24z" />
    <glyph glyph-name="Thorn" unicode="&#xde;" horiz-adv-x="612" 
d="M470 380q0 132 -173 132h-60q-40 0 -40 -40v-214q0 -13 11 -13h89q85 0 129 34.5t44 100.5zM112 66v568q0 38 -41 41l-29 2q-12 1 -12 15q0 12 15 12l111 -4l125 4q14 0 14 -13.5t-11 -13.5l-42 -2q-19 -1 -32 -12t-13 -29v-67q0 -12 15 -12l106 1h5q114 0 176.5 -44
t62.5 -129.5t-61.5 -134.5t-170.5 -49h-118q-15 0 -15 -12v-121q0 -18 13 -29t32 -12l42 -2q11 0 11 -13.5t-14 -13.5l-125 4l-111 -4q-15 0 -15 12q0 14 12 15l29 2q41 3 41 41z" />
    <glyph glyph-name="germandbls" unicode="&#xdf;" horiz-adv-x="620" 
d="M496 576q0 -58 -44 -91q-18 -14 -36 -27q-43 -29 -43 -64.5t22.5 -59.5t54.5 -41t63.5 -36t54 -51.5t22.5 -76.5q0 -63 -50.5 -101.5t-123 -38.5t-120.5 17t-48 38v87q0 18 14 18t18 -18q31 -103 130 -103q45 0 74 22.5t29 56.5t-22 57.5t-53 40t-62 35t-53 49t-22 65.5
t11.5 57t28.5 37.5t33 31.5q40 38 40 85t-30 72.5t-79 25.5q-66 0 -102 -44.5t-36 -124.5v-482q0 -12 -11 -12l-121 -4q-15 0 -15 13t12 14l17 2q40 5 40 41v364q0 121 60.5 201t171.5 80q79 0 127 -38.5t48 -96.5z" />
    <glyph glyph-name="agrave" unicode="&#xe0;" horiz-adv-x="511" 
d="M501 5q0 -16 -36 -16q-62 0 -105 49q-7 7 -10.5 7t-10.5 -6q-65 -50 -146 -50q-57 0 -100 35.5t-43 91.5q0 71 62 108q55 32 172 50q28 5 38 7q13 1 13 14v92q0 41 -27.5 65t-73 24t-82 -28t-46.5 -78q-3 -15 -16.5 -15t-13.5 15v75q0 17 11 25q53 41 152 41t139 -43
t40 -111v-267q0 -32 20.5 -52t48.5 -20q14 0 14 -13zM333 98v125q0 15 -13 15h-3q-179 -22 -179 -110q0 -41 27 -64.5t60.5 -23.5t59 13t37 26t11.5 19zM147 665q-19 10 -19 29.5t12.5 34t26.5 14.5t25 -9l151 -132l-18 -24z" />
    <glyph glyph-name="aacute" unicode="&#xe1;" horiz-adv-x="511" 
d="M501 5q0 -16 -36 -16q-62 0 -105 49q-7 7 -10.5 7t-10.5 -6q-65 -50 -146 -50q-57 0 -100 35.5t-43 91.5q0 71 62 108q55 32 172 50q28 5 38 7q13 1 13 14v92q0 41 -27.5 65t-73 24t-82 -28t-46.5 -78q-3 -15 -16.5 -15t-13.5 15v75q0 17 11 25q53 41 152 41t139 -43
t40 -111v-267q0 -32 20.5 -52t48.5 -20q14 0 14 -13zM333 98v125q0 17 -16 15q-179 -22 -179 -110q0 -41 27 -64.5t60.5 -23.5t59 13t37 26t11.5 19zM279 734q11 9 25 9t26.5 -14.5t12.5 -34t-19 -29.5l-178 -87l-18 24z" />
    <glyph glyph-name="acircumflex" unicode="&#xe2;" horiz-adv-x="511" 
d="M501 5q0 -16 -36 -16q-62 0 -105 49q-7 7 -10.5 7t-10.5 -6q-65 -50 -146 -50q-57 0 -100 35.5t-43 91.5q0 71 62 108q55 32 172 50q28 5 38 7q13 1 13 14v92q0 41 -27.5 65t-73 24t-82 -28t-46.5 -78q-3 -15 -16.5 -15t-13.5 15v75q0 17 11 25q53 41 152 41t139 -43
t40 -111v-267q0 -32 20.5 -52t48.5 -20q14 0 14 -13zM333 98v125q0 15 -13 15h-3q-179 -22 -179 -110q0 -41 27 -64.5t60.5 -23.5t59 13t37 26t11.5 19zM111 592l-18 23l155 137l155 -137l-18 -23l-137 76z" />
    <glyph glyph-name="atilde" unicode="&#xe3;" horiz-adv-x="511" 
d="M501 5q0 -16 -36 -16q-62 0 -105 49q-7 7 -10.5 7t-10.5 -6q-65 -50 -146 -50q-57 0 -100 35.5t-43 91.5q0 71 62 108q55 32 172 50q28 5 38 7q13 1 13 14v92q0 41 -27.5 65t-73 24t-82 -28t-46.5 -78q-3 -15 -16.5 -15t-13.5 15v75q0 17 11 25q53 41 152 41t139 -43
t40 -111v-267q0 -32 20.5 -52t48.5 -20q14 0 14 -13zM333 98v125q0 17 -16 15q-179 -22 -179 -110q0 -41 27 -64.5t60.5 -23.5t59 13t37 26t11.5 19zM313 610q-27 0 -72 23t-70.5 23t-41.5 -12t-21 -24l-5 -12l-32 15q5 26 35 59t81 33q29 0 78 -23t69.5 -23t36.5 12t21 24
l5 12l32 -15q-5 -26 -35 -59t-81 -33z" />
    <glyph glyph-name="adieresis" unicode="&#xe4;" horiz-adv-x="511" 
d="M501 5q0 -16 -36 -16q-62 0 -105 49q-7 7 -10.5 7t-10.5 -6q-65 -50 -146 -50q-57 0 -100 35.5t-43 91.5q0 71 62 108q55 32 172 50q28 5 38 7q13 1 13 14v92q0 41 -27.5 65t-73 24t-82 -28t-46.5 -78q-3 -15 -16.5 -15t-13.5 15v75q0 17 11 25q53 41 152 41t139 -43
t40 -111v-267q0 -32 20.5 -52t48.5 -20q14 0 14 -13zM333 98v125q0 15 -13 15h-3q-179 -22 -179 -110q0 -41 27 -64.5t60.5 -23.5t59 13t37 26t11.5 19zM102 659q0 22 15 37t37 15t37 -15t15 -37t-15 -37t-37 -15t-37 15t-15 37zM293 659q0 22 15 37t37 15t37 -15t15 -37
t-15 -37t-37 -15t-37 15t-15 37z" />
    <glyph glyph-name="aring" unicode="&#xe5;" horiz-adv-x="511" 
d="M501 5q0 -16 -36 -16q-62 0 -105 49q-7 7 -10.5 7t-10.5 -6q-65 -50 -146 -50q-57 0 -100 35.5t-43 91.5q0 71 62 108q55 32 172 50q28 5 38 7q13 1 13 14v92q0 41 -27.5 65t-73 24t-82 -28t-46.5 -78q-3 -15 -16.5 -15t-13.5 15v75q0 17 11 25q53 41 152 41t139 -43
t40 -111v-267q0 -32 20.5 -52t48.5 -20q14 0 14 -13zM333 98v125q0 17 -16 15q-179 -22 -179 -110q0 -41 27 -64.5t60.5 -23.5t59 13t37 26t11.5 19zM141 682q0 43 30 73t74 30t74 -30t30 -73t-30 -73t-74 -30t-74 30t-30 73zM190 682q0 -24 15.5 -40.5t39.5 -16.5t39 16.5
t15 40.5t-15 40.5t-39 16.5t-39.5 -16.5t-15.5 -40.5z" />
    <glyph glyph-name="ae" unicode="&#xe6;" horiz-adv-x="826" 
d="M781 316q0 -60 -54 -60h-288q-12 0 -12 -17q2 -92 53.5 -145.5t131 -53.5t117.5 31q13 10 24 -1t-3 -25q-56 -56 -154 -56q-140 0 -210 90q-55 -53 -100 -71.5t-97.5 -18.5t-95.5 35.5t-43 91.5q0 71 62 108q55 32 172 50q28 5 38 7q13 1 13 14v92q0 41 -27.5 65t-73 24
t-82 -28t-46.5 -78q-3 -15 -16.5 -15t-13.5 15v75q0 17 11 25q53 41 165 41t150 -77q69 77 165 77t155 -55.5t59 -139.5zM691 329q0 60 -32.5 101.5t-91 41.5t-99.5 -48t-41 -110q0 -16 13 -16h220q31 0 31 31zM333 98v125q0 15 -13 15h-3q-179 -22 -179 -110
q0 -41 27 -64.5t60.5 -23.5t59 13t37 26t11.5 19z" />
    <glyph glyph-name="ccedilla" unicode="&#xe7;" horiz-adv-x="525" 
d="M472 353q0 -17 -14 -17q-12 0 -16 17q-15 55 -49 87t-86 32q-75 0 -122 -55.5t-47 -147.5q0 -115 56.5 -172t131 -57t121.5 30q7 5 13 5t10.5 -4t4.5 -11.5t-8 -15.5q-55 -55 -163.5 -55t-181 69.5t-72.5 200.5q0 103 72.5 177.5t178.5 74.5q73 0 122 -22.5t49 -48.5v-87
zM313 -221.5q-36 -25.5 -86 -25.5q-25 0 -51 8v36q19 -6 45 -6t45 12.5t19 35.5t-19 38t-37 19l-19 4l42 100l35 -5l-21 -57q3 -1 9 -2.5t20 -8t25 -15.5q29 -24 29 -66t-36 -67.5z" />
    <glyph glyph-name="egrave" unicode="&#xe8;" horiz-adv-x="542" 
d="M497 316q0 -60 -54 -60h-288q-12 0 -12 -17q2 -92 53.5 -145.5t131 -53.5t117.5 31q13 10 24 -1t-3 -25q-56 -56 -154 -56q-123 0 -192.5 70.5t-69.5 196.5q0 102 69 178.5t164.5 76.5t154.5 -55.5t59 -139.5zM407 329q0 60 -32.5 101.5t-91 41.5t-99.5 -48t-41 -110
q0 -16 13 -16h220q31 0 31 31zM172 665q-19 10 -19 29.5t12.5 34t26.5 14.5t25 -9l151 -132l-18 -24z" />
    <glyph glyph-name="eacute" unicode="&#xe9;" horiz-adv-x="542" 
d="M497 316q0 -60 -54 -60h-288q-12 0 -12 -17q2 -92 53.5 -145.5t131 -53.5t117.5 31q13 10 24 -1t-3 -25q-56 -56 -154 -56q-123 0 -192.5 70.5t-69.5 196.5q0 102 69 178.5t164.5 76.5t154.5 -55.5t59 -139.5zM407 329q0 60 -32.5 101.5t-91 41.5t-99.5 -48t-41 -110
q0 -16 13 -16h220q31 0 31 31zM314 734q10 9 24.5 9t27 -14.5t12.5 -34t-19 -29.5l-178 -87l-18 24z" />
    <glyph glyph-name="ecircumflex" unicode="&#xea;" horiz-adv-x="542" 
d="M497 316q0 -60 -54 -60h-288q-12 0 -12 -17q2 -92 53.5 -145.5t131 -53.5t117.5 31q13 10 24 -1t-3 -25q-56 -56 -154 -56q-123 0 -192.5 70.5t-69.5 196.5q0 102 69 178.5t164.5 76.5t154.5 -55.5t59 -139.5zM407 329q0 60 -32.5 101.5t-91 41.5t-99.5 -48t-41 -110
q0 -16 13 -16h220q31 0 31 31zM149 592l-18 23l155 137l155 -137l-18 -23l-137 76z" />
    <glyph glyph-name="edieresis" unicode="&#xeb;" horiz-adv-x="542" 
d="M497 316q0 -60 -54 -60h-288q-12 0 -12 -17q2 -92 53.5 -145.5t131 -53.5t117.5 31q13 10 24 -1t-3 -25q-56 -56 -154 -56q-123 0 -192.5 70.5t-69.5 196.5q0 102 69 178.5t164.5 76.5t154.5 -55.5t59 -139.5zM407 329q0 60 -32.5 101.5t-91 41.5t-99.5 -48t-41 -110
q0 -16 13 -16h220q31 0 31 31zM133 659q0 22 15 37t37 15t37 -15t15 -37t-15 -37t-37 -15t-37 15t-15 37zM324 659q0 22 15 37t37 15t37 -15t15 -37t-15 -37t-37 -15t-37 15t-15 37z" />
    <glyph glyph-name="igrave" unicode="&#xec;" horiz-adv-x="288" 
d="M168 511q16 0 16 -23v-422q0 -36 40 -41l17 -2q12 -1 12 -14t-15 -13l-95 4l-108 -4q-15 0 -15 13t12 14l28 2q20 2 33 12.5t13 28.5v366q0 20 -8.5 27.5t-27.5 7.5h-34q-13 0 -13 13t13 15l130 16h2zM6 665q-19 10 -19 29.5t12.5 34t26.5 14.5t25 -9l151 -132l-18 -24z
" />
    <glyph glyph-name="iacute" unicode="&#xed;" horiz-adv-x="288" 
d="M241 23q12 -1 12 -14t-15 -13l-95 4l-108 -4q-15 0 -15 13t12 14l28 2q20 2 33 12.5t13 28.5v366q0 20 -8.5 27.5t-27.5 7.5h-34q-13 0 -13 13t13 15l130 16q18 2 18 -23v-422q0 -36 40 -41zM198 734q10 9 24.5 9t27 -14.5t12.5 -34t-19 -29.5l-178 -87l-18 24z" />
    <glyph glyph-name="icircumflex" unicode="&#xee;" horiz-adv-x="288" 
d="M168 511q16 0 16 -23v-422q0 -36 40 -41l17 -2q12 -1 12 -14t-15 -13l-95 4l-108 -4q-15 0 -15 13t12 14l28 2q20 2 33 12.5t13 28.5v366q0 20 -8.5 27.5t-27.5 7.5h-34q-13 0 -13 13t13 15l130 16h2zM7 592l-18 23l155 137l155 -137l-18 -23l-137 76z" />
    <glyph glyph-name="idieresis" unicode="&#xef;" horiz-adv-x="288" 
d="M241 23q12 -1 12 -14t-15 -13l-95 4l-108 -4q-15 0 -15 13t12 14l28 2q20 2 33 12.5t13 28.5v366q0 20 -8.5 27.5t-27.5 7.5h-34q-13 0 -13 13t13 15l130 16q18 2 18 -23v-422q0 -36 40 -41zM-3 659q0 22 15 37t37 15t37 -15t15 -37t-15 -37t-37 -15t-37 15t-15 37z
M188 659q0 22 15 37t37 15t37 -15t15 -37t-15 -37t-37 -15t-37 15t-15 37z" />
    <glyph glyph-name="eth" unicode="&#xf0;" 
d="M190 752q-13 8 -13 21t9.5 20.5t17 7.5t8.5 -1q61 -29 118 -71l95 70q4 3 8 3t9 -4l15 -22q7 -10 -3 -16l-85 -63q90 -81 138.5 -187.5t48.5 -223.5q0 -146 -66.5 -221.5t-184.5 -75.5t-186.5 72t-68.5 188t70 189t183 73q74 0 134 -44q-24 107 -118 193l-106 -78
q-8 -8 -17 1l-15 22q-8 10 3 16l97 71q-42 32 -91 60zM436 389q-17 38 -50.5 60.5t-81.5 22.5q-83 0 -124 -55t-41 -144q0 -92 32 -163q17 -37 50.5 -59.5t79.5 -22.5q85 0 125.5 55t40.5 146t-31 160z" />
    <glyph glyph-name="ntilde" unicode="&#xf1;" horiz-adv-x="640" 
d="M168 511q16 0 16 -23v-51q0 -5 3.5 -5t9.5 6q58 73 151.5 73t143.5 -49.5t50 -142.5v-253q0 -18 14.5 -28.5t34.5 -12.5l27 -2q12 -1 12 -14t-15 -13l-107 4l-91 -4q-15 0 -15 13t12 14l13 2q37 6 37 41v267q0 62 -35 96t-96.5 34t-105 -50.5t-43.5 -99.5v-247
q0 -36 40 -41l17 -2q12 -1 12 -14t-15 -13l-95 4l-108 -4q-15 0 -15 13t12 14l28 2q20 2 33 12.5t13 28.5v366q0 20 -8.5 27.5t-27.5 7.5h-34q-13 0 -13 13t13 15l130 16h2zM373 610q-27 0 -72 23t-70.5 23t-41.5 -12t-21 -24l-5 -12l-32 15q5 26 35 59t81 33q29 0 78 -23
t69.5 -23t36.5 12t21 24l5 12l32 -15q-5 -26 -35 -59t-81 -33z" />
    <glyph glyph-name="ograve" unicode="&#xf2;" 
d="M487.5 439q68.5 -72 68.5 -189.5t-68 -189t-184.5 -71.5t-185 72t-68.5 188t70 189t184.5 73t183 -72zM436 389q-17 38 -50.5 60.5t-81.5 22.5q-83 0 -124 -55t-41 -144q0 -92 32 -163q17 -37 50.5 -59.5t79.5 -22.5q85 0 125.5 55t40.5 146t-31 160zM214 665
q-19 10 -19 29.5t12.5 34t26.5 14.5t25 -9l151 -132l-18 -24z" />
    <glyph glyph-name="oacute" unicode="&#xf3;" 
d="M487.5 439q68.5 -72 68.5 -189.5t-68 -189t-184.5 -71.5t-185 72t-68.5 188t70 189t184.5 73t183 -72zM436 389q-17 38 -50.5 60.5t-81.5 22.5q-83 0 -124 -55t-41 -144q0 -92 32 -163q17 -37 50.5 -59.5t79.5 -22.5q85 0 125.5 55t40.5 146t-31 160zM346 734
q10 9 24.5 9t27 -14.5t12.5 -34t-19 -29.5l-178 -87l-18 24z" />
    <glyph glyph-name="ocircumflex" unicode="&#xf4;" 
d="M487.5 439q68.5 -72 68.5 -189.5t-68 -189t-184.5 -71.5t-185 72t-68.5 188t70 189t184.5 73t183 -72zM436 389q-17 38 -50.5 60.5t-81.5 22.5q-83 0 -124 -55t-41 -144q0 -92 32 -163q17 -37 50.5 -59.5t79.5 -22.5q85 0 125.5 55t40.5 146t-31 160zM166 592l-18 23
l155 137l155 -137l-18 -23l-137 76z" />
    <glyph glyph-name="otilde" unicode="&#xf5;" 
d="M487.5 439q68.5 -72 68.5 -189.5t-68 -189t-184.5 -71.5t-185 72t-68.5 188t70 189t184.5 73t183 -72zM436 389q-17 38 -50.5 60.5t-81.5 22.5q-83 0 -124 -55t-41 -144q0 -92 32 -163q17 -37 50.5 -59.5t79.5 -22.5q85 0 125.5 55t40.5 146t-31 160zM366 610
q-27 0 -72 23t-70.5 23t-41.5 -12t-21 -24l-5 -12l-32 15q5 26 35 59t81 33q29 0 78 -23t69.5 -23t36.5 12t21 24l5 12l32 -15q-5 -26 -35 -59t-81 -33z" />
    <glyph glyph-name="odieresis" unicode="&#xf6;" 
d="M487.5 439q68.5 -72 68.5 -189.5t-68 -189t-184.5 -71.5t-185 72t-68.5 188t70 189t184.5 73t183 -72zM436 389q-17 38 -50.5 60.5t-81.5 22.5q-83 0 -124 -55t-41 -144q0 -92 32 -163q17 -37 50.5 -59.5t79.5 -22.5q85 0 125.5 55t40.5 146t-31 160zM155 659q0 22 15 37
t37 15t37 -15t15 -37t-15 -37t-37 -15t-37 15t-15 37zM346 659q0 22 15 37t37 15t37 -15t15 -37t-15 -37t-37 -15t-37 15t-15 37z" />
    <glyph glyph-name="divide" unicode="&#xf7;" horiz-adv-x="674" 
d="M602 264h-530q-12 0 -12 11v40q0 11 12 11h530q12 0 12 -11v-40q0 -11 -12 -11zM380.5 156q18.5 -18 18.5 -43.5t-18.5 -43.5t-43.5 -18t-43 18t-18 43t18 43.5t43 18.5t43.5 -18zM399 477q0 -25 -18.5 -43t-43.5 -18t-43 18t-18 43t18 43.5t43 18.5t43.5 -18.5
t18.5 -43.5z" />
    <glyph glyph-name="oslash" unicode="&#xf8;" 
d="M498 426q58 -71 58 -182.5t-68 -183t-176.5 -71.5t-173.5 53l-28 -30q-12 -12 -20 -12h-36q-7 0 -7 6q0 3 3 6l57 61q-57 69 -57 180.5t70 184.5t175 73t172 -54l29 31q12 12 20 12h36q7 0 7 -6q0 -3 -3 -6zM426.5 83q40.5 55 40.5 140.5t-23 145.5l-261 -279
q42 -62 122.5 -62t121 55zM180 417q-41 -55 -41 -140.5t23 -145.5l261 279q-42 62 -122 62t-121 -55z" />
    <glyph glyph-name="ugrave" unicode="&#xf9;" horiz-adv-x="628" 
d="M535 458v-367q0 -32 20 -51.5t48 -19.5q15 0 15 -12q0 -19 -39 -19q-59 0 -103 49q-3 3 -6 7t-5 7q-4 5 -8.5 5t-13.5 -8q-68 -60 -154.5 -60t-138.5 50t-52 142v253q0 20 -8.5 28t-26.5 8h-34q-5 0 -9.5 4t-4.5 10q0 12 14 14l132 13h5q20 0 20 -16q0 -2 -5 -12t-5 -25
v-293q0 -62 38.5 -97.5t99 -35.5t102 45t41.5 102v255q0 20 -8.5 28t-26.5 8h-44q-5 0 -9.5 4t-4.5 10q0 12 14 14l140 13h5q20 0 20 -16q0 -2 -4 -12t-4 -25zM185 665q-19 10 -19 29.5t12.5 34t26.5 14.5t25 -9l151 -132l-18 -24z" />
    <glyph glyph-name="uacute" unicode="&#xfa;" horiz-adv-x="628" 
d="M535 458v-367q0 -32 20 -51.5t48 -19.5q15 0 15 -12q0 -19 -39 -19q-59 0 -103 49q-3 3 -6 7t-5 7q-4 5 -8.5 5t-13.5 -8q-68 -60 -154.5 -60t-138.5 50t-52 142v253q0 20 -8.5 28t-26.5 8h-34q-5 0 -9.5 4t-4.5 10q0 12 14 14l132 13h5q20 0 20 -16q0 -2 -5 -12t-5 -25
v-293q0 -62 38.5 -97.5t99 -35.5t102 45t41.5 102v255q0 20 -8.5 28t-26.5 8h-44q-5 0 -9.5 4t-4.5 10q0 12 14 14l140 13h5q20 0 20 -16q0 -2 -4 -12t-4 -25zM377 734q11 9 25 9t26.5 -14.5t12.5 -34t-19 -29.5l-178 -87l-18 24z" />
    <glyph glyph-name="ucircumflex" unicode="&#xfb;" horiz-adv-x="628" 
d="M535 458v-367q0 -32 20 -51.5t48 -19.5q15 0 15 -12q0 -19 -39 -19q-59 0 -103 49q-3 3 -6 7t-5 7q-4 5 -8.5 5t-13.5 -8q-68 -60 -154.5 -60t-138.5 50t-52 142v253q0 20 -8.5 28t-26.5 8h-34q-5 0 -9.5 4t-4.5 10q0 12 14 14l132 13h5q20 0 20 -16q0 -2 -5 -12t-5 -25
v-293q0 -62 38.5 -97.5t99 -35.5t102 45t41.5 102v255q0 20 -8.5 28t-26.5 8h-44q-5 0 -9.5 4t-4.5 10q0 12 14 14l140 13h5q20 0 20 -16q0 -2 -4 -12t-4 -25zM163 592l-18 23l155 137l155 -137l-18 -23l-137 76z" />
    <glyph glyph-name="udieresis" unicode="&#xfc;" horiz-adv-x="628" 
d="M535 458v-367q0 -32 20 -51.5t48 -19.5q15 0 15 -12q0 -19 -39 -19q-59 0 -103 49q-3 3 -6 7t-5 7q-4 5 -8.5 5t-13.5 -8q-68 -60 -154.5 -60t-138.5 50t-52 142v253q0 20 -8.5 28t-26.5 8h-34q-5 0 -9.5 4t-4.5 10q0 12 14 14l132 13h5q20 0 20 -16q0 -2 -5 -12t-5 -25
v-293q0 -62 38.5 -97.5t99 -35.5t102 45t41.5 102v255q0 20 -8.5 28t-26.5 8h-44q-5 0 -9.5 4t-4.5 10q0 12 14 14l140 13h5q20 0 20 -16q0 -2 -4 -12t-4 -25zM146 659q0 22 15 37t37 15t37 -15t15 -37t-15 -37t-37 -15t-37 15t-15 37zM337 659q0 22 15 37t37 15t37 -15
t15 -37t-15 -37t-37 -15t-37 15t-15 37z" />
    <glyph glyph-name="yacute" unicode="&#xfd;" horiz-adv-x="534" 
d="M413 453q0 19 -27 23l-18 2q-12 2 -12 14t14 12l78 -4l72 4q13 0 13 -12t-11 -14l-19 -3q-33 -5 -47 -39l-214 -495q-69 -156 -140 -202q-16 -10 -23 -10t-9 2l-30 38q-4 5 -4 12t6 11q32 16 48 26.5t42 35.5q44 44 103 178q3 5 3 12t-3 13l-158 382q-11 28 -46 36l-19 3
q-11 2 -11 14t14 12l99 -4l99 4q17 0 17 -12t-13 -14l-21 -2q-19 -1 -27 -12t-2 -25l113 -295q1 -2 4.5 -2.5t5.5 4.5l120 293q3 8 3 14zM360 734q10 9 24.5 9t27 -14.5t12.5 -34t-19 -29.5l-178 -87l-18 24z" />
    <glyph glyph-name="thorn" unicode="&#xfe;" horiz-adv-x="621" 
d="M484 218q0 120 -48 186t-119.5 66t-107 -38.5t-35.5 -81.5v-201q0 -48 42.5 -84.5t93.5 -36.5q80 0 127 50t47 140zM158 800q16 0 16 -23v-308q0 -12 8.5 -5t23.5 16.5t46 20t63 10.5q117 0 186.5 -70.5t69.5 -188.5t-73 -190.5t-178 -72.5q-77 0 -134 42q-5 4 -8.5 1
t-3.5 -10v-256q0 -36 40 -41l17 -2q12 -1 12 -14t-15 -13l-95 4l-108 -4q-15 0 -15 13t12 14l28 2q20 2 33 12.5t13 28.5v955q0 20 -8.5 27.5t-27.5 7.5h-34q-13 0 -13 13t13 15l130 16h2z" />
    <glyph glyph-name="ydieresis" unicode="&#xff;" horiz-adv-x="534" 
d="M413 453q0 19 -27 23l-18 2q-12 2 -12 14t14 12l78 -4l72 4q13 0 13 -12t-11 -14l-19 -3q-33 -5 -47 -39l-214 -495q-69 -156 -140 -202q-16 -10 -23 -10t-9 2l-30 38q-4 5 -4 12t6 11q32 16 48 26.5t42 35.5q44 44 103 178q3 5 3 12t-3 13l-158 382q-11 28 -46 36l-19 3
q-11 2 -11 14t14 12l99 -4l99 4q17 0 17 -12t-13 -14l-21 -2q-19 -1 -27 -12t-2 -25l113 -295q1 -2 4.5 -2.5t5.5 4.5l120 293q3 8 3 14zM139 659q0 22 15 37t37 15t37 -15t15 -37t-15 -37t-37 -15t-37 15t-15 37zM330 659q0 22 15 37t37 15t37 -15t15 -37t-15 -37t-37 -15
t-37 15t-15 37z" />
    <glyph glyph-name="hbar" unicode="&#x127;" horiz-adv-x="638" 
d="M168 800q16 0 16 -23v-117h151q12 0 12 -11v-27q0 -11 -12 -11h-151v-174q0 -5 3.5 -5t9.5 6q58 73 151.5 73t143.5 -49.5t50 -142.5v-253q0 -18 13 -28.5t33 -12.5l28 -2q12 -1 12 -14t-15 -13l-108 4l-90 -4q-15 0 -15 13t12 14l12 2q40 7 40 41v267q0 62 -35 96
t-96.5 34t-105 -50.5t-43.5 -99.5v-247q0 -36 40 -41l15 -2q12 -1 12 -14t-15 -13l-93 4l-108 -4q-15 0 -15 13t12 14l28 2q20 2 33 12.5t13 28.5v545h-71q-12 0 -12 11v27q0 11 12 11h71v61q0 20 -8.5 27.5t-27.5 7.5h-34q-13 0 -13 13t13 15l130 16h2z" />
    <glyph glyph-name="Itilde" unicode="&#x128;" horiz-adv-x="317" 
d="M61 -4q-14 0 -14 12.5t11 14.5l17 2q41 5 41 41v568q0 36 -46 40l-29 3q-11 2 -11 13q0 14 14 14l113 -4l99 4q15 0 15 -12q0 -14 -13 -15l-17 -3q-40 -7 -40 -40v-568q0 -18 13 -28.5t32 -12.5l29 -2q12 0 12 -13q0 -6 -4.5 -10t-9.5 -4l-113 4zM222 810q-27 0 -72 23
t-70.5 23t-41.5 -12t-21 -24l-5 -12l-32 15q5 26 35 59t81 33q29 0 78 -23t69.5 -23t36.5 12t21 24l5 12l32 -15q-5 -26 -35 -59t-81 -33z" />
    <glyph glyph-name="itilde" unicode="&#x129;" horiz-adv-x="288" 
d="M241 23q12 -1 12 -14t-15 -13l-95 4l-108 -4q-15 0 -15 13t12 14l28 2q20 2 33 12.5t13 28.5v366q0 20 -8.5 27.5t-27.5 7.5h-34q-13 0 -13 13t13 15l130 16q18 2 18 -23v-422q0 -36 40 -41zM207 610q-27 0 -72 23t-70.5 23t-41.5 -12t-21 -24l-5 -12l-32 15q5 26 35 59
t81 33q29 0 78 -23t69.5 -23t36.5 12t21 24l5 12l32 -15q-5 -26 -35 -59t-81 -33z" />
    <glyph glyph-name="dotlessi" unicode="&#x131;" horiz-adv-x="288" 
d="M168 511q16 0 16 -23v-422q0 -36 40 -41l17 -2q12 -1 12 -14t-15 -13l-95 4l-108 -4q-15 0 -15 13t12 14l28 2q20 2 33 12.5t13 28.5v366q0 20 -8.5 27.5t-27.5 7.5h-34q-13 0 -13 13t13 15l130 16h2z" />
    <glyph glyph-name="IJ" unicode="&#x132;" horiz-adv-x="634" 
d="M61 -4q-14 0 -14 12.5t11 14.5l17 2q41 5 41 41v568q0 36 -46 40l-29 3q-11 2 -11 13q0 14 14 14l113 -4l99 4q15 0 15 -12q0 -14 -13 -15l-17 -3q-40 -7 -40 -40v-568q0 -18 13 -28.5t32 -12.5l29 -2q12 0 12 -13q0 -6 -4.5 -10t-9.5 -4l-113 4zM519 634v-639
q0 -102 -33.5 -164.5t-93.5 -102.5q-44 -28 -56.5 -28t-16.5 7q-7 13 -7 18t7 10q51 36 65 53q50 53 50 156v690q0 36 -46 40l-29 3q-11 2 -11 13q0 14 14 14l113 -4l99 4q15 0 15 -12q0 -14 -13 -15l-17 -3q-40 -7 -40 -40z" />
    <glyph glyph-name="ij" unicode="&#x133;" horiz-adv-x="565" 
d="M241 23q12 -1 12 -14t-15 -13l-95 4l-108 -4q-15 0 -15 13t12 14l28 2q20 2 33 12.5t13 28.5v366q0 20 -8.5 27.5t-27.5 7.5h-34q-13 0 -13 13t13 15l130 16q18 2 18 -23v-422q0 -36 40 -41zM89 695q0 20 13.5 33t33.5 13t34 -13t14 -33t-14 -33t-34 -13t-33.5 13
t-13.5 33zM379 695q0 20 13.5 33t33.5 13t34 -13t14 -33t-14 -33t-34 -13t-33.5 13t-13.5 33zM458 511q17 0 17 -23v-493q0 -190 -120 -267q-44 -28 -56.5 -28t-16.5 7q-7 11 -7 18t7 10q39 22 65 53q50 53 50 156v488q0 20 -8.5 27.5t-27.5 7.5h-34q-13 0 -13 13t13 15
l129 16h2z" />
    <glyph glyph-name="Jcircumflex" unicode="&#x134;" horiz-adv-x="317" 
d="M202 634v-639q0 -102 -33.5 -164.5t-93.5 -102.5q-44 -28 -56.5 -28t-16.5 7q-7 13 -7 18t7 10q51 36 65 53q50 53 50 156v690q0 36 -46 40l-29 3q-11 2 -11 13q0 14 14 14l113 -4l99 4q15 0 15 -12q0 -14 -13 -15l-17 -3q-40 -7 -40 -40zM22 792l-18 23l155 137
l155 -137l-18 -23l-137 76z" />
    <glyph glyph-name="jcircumflex" unicode="&#x135;" horiz-adv-x="277" 
d="M187 488v-493q0 -190 -120 -267q-44 -28 -56.5 -28t-16.5 7q-13 22 0 28q39 22 65 53q50 53 50 156v488q0 20 -8.5 27.5t-27.5 7.5h-34q-13 0 -13 13t13 15l129 16q19 2 19 -23zM2 592l-18 23l155 137l155 -137l-18 -23l-137 76z" />
    <glyph glyph-name="kcommaaccent" unicode="&#x137;" horiz-adv-x="564" 
d="M106 66v655q0 20 -8.5 27.5t-27.5 7.5h-34q-13 0 -13 13t13 15l130 16q18 0 18 -23v-481q0 -9 7 -9h42q8 0 14 6l141 148q9 11 9 17.5t-7.5 17.5t-7.5 16q0 11 14 11l63 -3l74 4q15 0 15 -12t-12 -14l-14 -2q-34 -5 -60 -32l-155 -157q-4 -4 -4 -7.5t4 -7.5l179 -206
q34 -39 53 -41l18 -2q12 -2 12 -13q0 -14 -14 -14q-75 4 -93 4l-61 -3q-15 0 -15 11q0 7 5.5 16.5t5.5 15.5t-9 16l-149 181q-6 6 -13 6h-33q-9 0 -9 -9v-168q0 -36 40 -41l17 -2q12 -1 12 -14t-15 -13l-95 4l-108 -4q-15 0 -15 13t12 14l28 2q20 2 33 12.5t13 28.5z
M257 -327q-18 0 -18 17q0 9 7 14q52 39 55 91q-30 2 -46 19.5t-16 43t18 44t44 18.5t45 -21t19 -65t-30 -90t-64 -66q-8 -5 -14 -5z" />
    <glyph glyph-name="kgreenlandic" unicode="&#x138;" horiz-adv-x="564" 
d="M106 66v366q0 20 -8.5 27.5t-27.5 7.5h-34q-13 0 -13 13t13 15l130 16q18 0 18 -23v-192q0 -9 7 -9h42q8 0 14 6l141 148q9 11 9 17.5t-7.5 17.5t-7.5 16q0 11 14 11l63 -3l74 4q15 0 15 -12t-12 -14l-14 -2q-34 -5 -60 -32l-155 -157q-4 -4 -4 -7.5t4 -7.5l179 -206
q34 -39 53 -41l18 -2q12 -2 12 -13q0 -14 -14 -14q-75 4 -93 4l-61 -3q-15 0 -15 11q0 7 5.5 16.5t5.5 15.5t-9 16l-149 181q-6 6 -13 6h-33q-9 0 -9 -9v-168q0 -36 40 -41l17 -2q12 -1 12 -14t-15 -13l-95 4l-108 -4q-15 0 -15 13t12 14l28 2q20 2 33 12.5t13 28.5z" />
    <glyph glyph-name="Ldotaccent" unicode="&#x13f;" horiz-adv-x="594" 
d="M201 634v-542q0 -21 13.5 -33.5t35.5 -12.5h145q53 0 91 25.5t52 74.5q5 16 21 16t14 -18l-16 -104q-2 -17 -14 -28.5t-31 -11.5h-355l-113 -4q-14 0 -14 13.5t11 13.5l29 2q20 2 33 12.5t13 28.5v568q0 36 -46 40l-29 3q-11 2 -11 13q0 14 14 14l113 -4l99 4
q15 0 15 -12q0 -14 -13 -15l-17 -3q-40 -7 -40 -40zM286 324q0 22 15 37t37 15t37 -15t15 -37t-15 -37t-37 -15t-37 15t-15 37z" />
    <glyph glyph-name="ldot" unicode="&#x140;" horiz-adv-x="370" 
d="M168 800q16 0 16 -23v-711q0 -36 40 -41l17 -2q12 -1 12 -14t-15 -13l-95 4l-108 -4q-15 0 -15 13t12 14l28 2q20 2 33 12.5t13 28.5v655q0 20 -8.5 27.5t-27.5 7.5h-34q-13 0 -13 13t13 15l130 16h2zM256 314q0 22 15 37t37 15t37 -15t15 -37t-15 -37t-37 -15t-37 15
t-15 37z" />
    <glyph glyph-name="Lslash" unicode="&#x141;" horiz-adv-x="594" 
d="M373 390v-31q0 -10 -12 -14l-318 -137q-5 -2 -8.5 0.5t-3.5 7.5v31q0 10 12 14l318 137q5 2 8.5 -0.5t3.5 -7.5zM201 634v-542q0 -21 13.5 -33.5t35.5 -12.5h145q53 0 91 25.5t52 74.5q5 16 21 16t14 -18l-16 -104q-2 -17 -14 -28.5t-31 -11.5h-355l-113 -4
q-14 0 -14 13.5t11 13.5l29 2q20 2 33 12.5t13 28.5v568q0 36 -46 40l-29 3q-11 2 -11 13q0 14 14 14l113 -4l99 4q15 0 15 -12q0 -14 -13 -15l-17 -3q-40 -7 -40 -40z" />
    <glyph glyph-name="lslash" unicode="&#x142;" horiz-adv-x="308" 
d="M288 390v-31q0 -8 -12 -14l-244 -137q-4 -2 -8 0.5t-4 7.5v31q0 8 12 14l244 137q5 2 8.5 -0.5t3.5 -7.5zM178 800q16 0 16 -23v-711q0 -36 40 -41l17 -2q12 -1 12 -14t-15 -13l-95 4l-108 -4q-15 0 -15 13t12 14l28 2q20 2 33 12.5t13 28.5v655q0 20 -8.5 27.5
t-27.5 7.5h-34q-13 0 -13 13t13 15l130 16h2z" />
    <glyph glyph-name="Nacute" unicode="&#x143;" horiz-adv-x="762" 
d="M613 149v485q0 35 -45 40l-29 3q-11 2 -11 14t14 12l97 -3l78 3q15 0 15 -12t-13 -14l-17 -3q-40 -7 -40 -40v-633q0 -12 -11 -12h-13q-25 0 -43 24l-421 539q-2 2 -6 2t-4 -10v-478q0 -33 40 -40l17 -3q13 -2 13 -14t-15 -12l-78 3l-97 -3q-14 0 -14 12t11 14l29 3
q46 5 46 40v568q0 35 -40 40l-18 2q-12 2 -12 14.5t15 12.5l80 -3q29 -1 44 -19l417 -535q3 -3 7 -3t4 6zM464 934q10 9 24.5 9t27 -14.5t12.5 -34t-19 -29.5l-178 -87l-18 24z" />
    <glyph glyph-name="nacute" unicode="&#x144;" horiz-adv-x="640" 
d="M542 319v-253q0 -18 14.5 -28.5t34.5 -12.5l27 -2q12 -1 12 -14t-15 -13l-107 4l-91 -4q-15 0 -15 13t12 14l13 2q37 6 37 41v267q0 62 -35 96t-96.5 34t-105 -50.5t-43.5 -99.5v-247q0 -36 40 -41l17 -2q12 -1 12 -14t-15 -13l-95 4l-108 -4q-15 0 -15 13t12 14l28 2
q20 2 33 12.5t13 28.5v366q0 20 -8.5 27.5t-27.5 7.5h-34q-13 0 -13 13t13 15l130 16q18 2 18 -23v-51q0 -5 3.5 -5t9.5 6q58 73 151.5 73t143.5 -49.5t50 -142.5zM383 734q11 9 25 9t26.5 -14.5t12.5 -34t-19 -29.5l-178 -87l-18 24z" />
    <glyph glyph-name="OE" unicode="&#x152;" horiz-adv-x="1052" 
d="M950 0h-375l-98 -3q-40 -8 -77 -8q-156 0 -253 102t-97 258.5t97 259t253 102.5q39 0 79 -8l96 -3h355q19 0 31 -11.5t14 -28.5l14 -92q2 -18 -14.5 -18t-21.5 16q-15 48 -45 68t-83 20h-157q-22 0 -35.5 -12.5t-13.5 -34.5v-210q0 -13 13 -13h186q14 0 22 7t10.5 13
t7.5 22l4 13q3 12 15 12t12 -14l-4 -85l4 -81q0 -13 -13 -15q-12 0 -14 12l-3 18q-9 52 -41 52h-187q-12 0 -12 -14v-232q0 -21 13.5 -33.5t35.5 -12.5h165q52 0 89.5 25.5t52.5 74.5q5 16 16.5 16t16 -5.5t3.5 -12.5l-16 -104q-2 -17 -14.5 -28.5t-30.5 -11.5zM285 66.5
q52 -31.5 123 -31.5t126 32v558q-58 40 -135 40q-122 0 -188.5 -74.5t-66.5 -202.5q0 -133 60 -238q29 -52 81 -83.5z" />
    <glyph glyph-name="oe" unicode="&#x153;" horiz-adv-x="960" 
d="M915 316q0 -60 -54 -60h-288q-12 0 -12 -17q2 -92 53.5 -145.5t131 -53.5t117.5 31q13 10 24 -1t-3 -25q-56 -56 -154 -56q-150 0 -218 101q-69 -101 -209 -101q-116 0 -184.5 72t-68.5 188t70 189t183 73q142 0 211 -106q32 49 82.5 77.5t108.5 28.5q92 0 151 -55.5
t59 -139.5zM436 389q-17 38 -50.5 60.5t-81.5 22.5q-83 0 -124 -55t-41 -144q0 -92 32 -163q17 -37 50.5 -59.5t79.5 -22.5q85 0 125.5 55t40.5 146t-31 160zM825 329q0 60 -32.5 101.5t-91 41.5t-99.5 -48t-41 -110q0 -16 13 -16h220q31 0 31 31z" />
    <glyph glyph-name="Racute" unicode="&#x154;" horiz-adv-x="668" 
d="M497 517q0 63 -46 100.5t-116 37.5h-94q-40 0 -40 -40v-225q0 -13 11 -13h123q69 0 115.5 38.5t46.5 101.5zM369 700q96 0 157.5 -49t61.5 -129.5t-60.5 -133t-134.5 -54.5l-1 -2q21 -7 33 -26l151 -240q21 -35 66 -41l18 -2q13 -2 13 -13q0 -14 -15 -14q-96 4 -119.5 4
t-36.5 20l-169 281q-20 31 -44 31h-1h-72q-15 0 -15 -12v-254q0 -18 13 -29t32 -12l42 -2q11 0 11 -13.5t-14 -13.5l-125 4l-111 -4q-13 0 -15 12q0 14 12 15l29 2q41 3 41 41v568q0 36 -46 40l-29 3q-11 2 -11 13q0 14 14 14l138 -4h187zM377 934q11 9 25 9t26.5 -14.5
t12.5 -34t-19 -29.5l-178 -87l-18 24z" />
    <glyph glyph-name="Rcommaaccent" unicode="&#x156;" horiz-adv-x="668" 
d="M497 517q0 63 -46 100.5t-116 37.5h-94q-40 0 -40 -40v-225q0 -13 11 -13h123q69 0 115.5 38.5t46.5 101.5zM369 700q96 0 157.5 -49t61.5 -129.5t-60.5 -133t-134.5 -54.5l-1 -2q21 -7 33 -26l151 -240q21 -35 66 -41l18 -2q13 -2 13 -13q0 -14 -15 -14q-96 4 -119.5 4
t-36.5 20l-169 281q-20 31 -44 31h-1h-72q-15 0 -15 -12v-254q0 -18 13 -29t32 -12l42 -2q11 0 11 -13.5t-14 -13.5l-125 4l-111 -4q-13 0 -15 12q0 14 12 15l29 2q41 3 41 41v568q0 36 -46 40l-29 3q-11 2 -11 13q0 14 14 14l138 -4h187zM319 -327q-18 0 -18 17q0 9 7 14
q52 39 55 91q-30 2 -46 19.5t-16 43t18 44t44 18.5t45 -21t19 -65t-30 -90t-64 -66q-8 -5 -14 -5z" />
    <glyph glyph-name="rcommaaccent" unicode="&#x157;" horiz-adv-x="408" 
d="M168 511q16 0 16 -23v-54q0 -5 4 -5t9 6q23 29 63.5 52.5t72 23.5t48.5 -7t17 -16v-77q0 -15 -14 -15q-8 0 -21 15q-28 34 -72.5 34t-75.5 -42t-31 -121v-216q0 -36 53 -40l41 -3q12 -1 12 -14t-15 -13l-132 4l-108 -4q-15 0 -15 13t12 14l28 2q20 2 33 12.5t13 28.5v366
q0 20 -8.5 27.5t-27.5 7.5h-34q-13 0 -13 13t13 15l130 16h2zM159 -327q-18 0 -18 17q0 9 7 14q52 39 55 91q-30 2 -46 19.5t-16 43t18 44t44 18.5t45 -21t19 -65t-30 -90t-64 -66q-8 -5 -14 -5z" />
    <glyph glyph-name="Rcaron" unicode="&#x158;" horiz-adv-x="668" 
d="M497 517q0 63 -46 100.5t-116 37.5h-94q-40 0 -40 -40v-225q0 -13 11 -13h123q69 0 115.5 38.5t46.5 101.5zM369 700q96 0 157.5 -49t61.5 -129.5t-60.5 -133t-134.5 -54.5l-1 -2q21 -7 33 -26l151 -240q21 -35 66 -41l18 -2q13 -2 13 -13q0 -14 -15 -14q-96 4 -119.5 4
t-36.5 20l-169 281q-20 31 -44 31h-1h-72q-15 0 -15 -12v-254q0 -18 13 -29t32 -12l42 -2q11 0 11 -13.5t-14 -13.5l-125 4l-111 -4q-13 0 -15 12q0 14 12 15l29 2q41 3 41 41v568q0 36 -46 40l-29 3q-11 2 -11 13q0 14 14 14l138 -4h187zM169 929l18 23l137 -76l137 76
l18 -23l-155 -137z" />
    <glyph glyph-name="rcaron" unicode="&#x159;" horiz-adv-x="408" 
d="M106 66v366q0 20 -8.5 27.5t-27.5 7.5h-34q-13 0 -13 13t13 15l130 16q18 2 18 -23v-54q0 -5 4 -5t9 6q23 29 63.5 52.5t72 23.5t48.5 -7t17 -16v-77q0 -15 -14 -15q-8 0 -21 15q-28 34 -72.5 34t-75.5 -42t-31 -121v-216q0 -36 53 -40l41 -3q12 -1 12 -14t-15 -13
l-132 4l-108 -4q-15 0 -15 13t12 14l28 2q20 2 33 12.5t13 28.5zM49 729l18 23l137 -76l137 76l18 -23l-155 -137z" />
    <glyph glyph-name="Scaron" unicode="&#x160;" horiz-adv-x="571" 
d="M521 181q0 -94 -70.5 -143t-171 -49t-165 24t-64.5 53v117q0 21 16 21q13 0 18 -19q26 -77 67.5 -114.5t116.5 -37.5t121.5 34t46.5 94q0 66 -74 111q-33 20 -73 39t-80 39.5t-73 44.5q-74 54 -74 136.5t63.5 131t149.5 48.5t146 -21.5t60 -47.5v-101q0 -20 -14.5 -20
t-21.5 20q-21 64 -55 95t-101.5 31t-106.5 -32t-39 -79.5t39 -82t94.5 -61t111 -55t94.5 -73.5t39 -103zM130 929l18 23l137 -76l137 76l18 -23l-155 -137z" />
    <glyph glyph-name="scaron" unicode="&#x161;" horiz-adv-x="442" 
d="M397 129q0 -63 -50.5 -101.5t-123 -38.5t-120.5 17t-48 38v87q0 18 13.5 18t18.5 -18q31 -103 130 -103q45 0 74 22.5t29 56.5t-27 58.5t-65.5 42.5t-77 38t-65.5 51.5t-27 72.5q0 61 47 101t125 40q52 0 95 -17.5t43 -37.5v-77q0 -18 -14 -18t-18 18q-27 93 -113 93
q-39 0 -66 -19.5t-27 -52t27.5 -57.5t67 -43.5t78.5 -39t66.5 -54t27.5 -77.5zM66 729l18 23l137 -76l137 76l18 -23l-155 -137z" />
    <glyph glyph-name="Ydieresis" unicode="&#x178;" horiz-adv-x="712" 
d="M703 703q14 0 14 -12t-11 -14l-29 -3q-33 -3 -57 -40l-195 -312q-12 -21 -14 -47v-209q0 -18 13 -28.5t32 -12.5l29 -2q12 0 12 -13q0 -6 -4.5 -10t-9.5 -4l-113 4l-100 -4q-14 0 -14 12.5t11 14.5l17 2q41 5 41 41v195q0 19 -9 35l-218 338q-24 37 -58 40l-29 3
q-11 2 -11 14t14 12l119 -3l106 2q15 0 15 -13t-12 -14l-19 -2q-18 -2 -23.5 -15t2.5 -24l174 -286q4 -7 9 -7t9 5l171 288q8 11 2.5 23.5t-23.5 15.5l-19 2q-14 2 -12 15q1 12 15 12l78 -2zM228 859q0 22 15 37t37 15t37 -15t15 -37t-15 -37t-37 -15t-37 15t-15 37z
M419 859q0 22 15 37t37 15t37 -15t15 -37t-15 -37t-37 -15t-37 15t-15 37z" />
    <glyph glyph-name="Zcaron" unicode="&#x17d;" horiz-adv-x="613" 
d="M521 0h-469q-12 0 -12 11v9q0 10 5 17l388 607q6 10 -6 10h-220q-42 0 -72 -26t-43 -63q-4 -17 -19 -17q-7 0 -11 5.5t-3 11.5l20 105q5 30 27 30h434q12 0 12 -8v-10q0 -6 -12 -26l-375 -591q-4 -6 -3 -11t6 -5h233q102 0 146 110q6 15 20 15q17 0 15 -18l-16 -116
q-2 -17 -14 -28.5t-31 -11.5zM151 929l18 23l137 -76l137 76l18 -23l-155 -137z" />
    <glyph glyph-name="zcaron" unicode="&#x17e;" horiz-adv-x="472" 
d="M416 0h-379q-12 0 -12 11v9q0 10 5 17l290 416q6 10 -6 10h-132q-82 0 -103 -64q-4 -18 -19 -18q-7 0 -11 5.5t-3 12.5l8 70q3 31 27 31h334q13 0 13 -9v-10q0 -6 -13 -25l-277 -401q-4 -5 -3.5 -10.5t6.5 -5.5h173q37 0 65 22t40 60q6 17 19 17q6 0 10 -5.5t3 -11.5
l-9 -89q-3 -32 -26 -32zM81 729l18 23l137 -76l137 76l18 -23l-155 -137z" />
    <glyph glyph-name="florin" unicode="&#x192;" horiz-adv-x="432" 
d="M235 -19q0 -117 -57 -199t-143 -82q-32 0 -53 10q-32 15 -32 36v65q0 6 3.5 11.5t8.5 5.5q11 0 18 -17q9 -30 31 -46.5t49 -16.5q47 0 72 44t25 125v433q0 11 -12 11h-61q-12 0 -12 13v8q0 10 12 12l56 14q17 4 17 18v4q0 117 57 199t143 82q32 0 53 -9q32 -16 32 -37
v-65q0 -6 -3.5 -11.5t-8.5 -5.5q-11 0 -18 17q-9 30 -31 46.5t-49 16.5q-47 0 -72 -44t-25 -125v-72q0 -11 10 -11h110q13 0 11 -12l-4 -25q-2 -13 -12 -13h-106q-9 0 -9 -11v-369z" />
    <glyph glyph-name="circumflex" unicode="&#x2c6;" horiz-adv-x="440" 
d="M83 592l-18 23l155 137l155 -137l-18 -23l-137 76z" />
    <glyph glyph-name="caron" unicode="&#x2c7;" horiz-adv-x="440" 
d="M65 729l18 23l137 -76l137 76l18 -23l-155 -137z" />
    <glyph glyph-name="breve" unicode="&#x2d8;" horiz-adv-x="440" 
d="M220 602q-65 0 -110 44.5t-45 108.5v12h47v-2q0 -42 31 -69t77 -27t77 27t31 69v2h47v-12q0 -64 -45 -108.5t-110 -44.5z" />
    <glyph glyph-name="dotaccent" unicode="&#x2d9;" horiz-adv-x="234" 
d="M65 646q0 22 15 37t37 15t37 -15t15 -37t-15 -37t-37 -15t-37 15t-15 37z" />
    <glyph glyph-name="ring" unicode="&#x2da;" horiz-adv-x="338" 
d="M65 682q0 43 30 73t74 30t74 -30t30 -73t-30 -73t-74 -30t-74 30t-30 73zM114 682q0 -24 15.5 -40.5t39.5 -16.5t39 16.5t15 40.5t-15 40.5t-39 16.5t-39.5 -16.5t-15.5 -40.5z" />
    <glyph glyph-name="ogonek" unicode="&#x2db;" horiz-adv-x="297" 
d="M129 -129q0 -50 52 -50q17 0 37 6v-36q-26 -8 -48 -8q-45 0 -75 25.5t-30 69.5q0 46 40 80q35 31 61 42l12 5l54 -10q-63 -32 -92 -84q-11 -20 -11 -40z" />
    <glyph glyph-name="tilde" unicode="&#x2dc;" horiz-adv-x="488" 
d="M307 610q-27 0 -72 23t-70.5 23t-41.5 -12t-21 -24l-5 -12l-32 15q5 26 35 59t81 33q29 0 78 -23t69.5 -23t36.5 12t21 24l5 12l32 -15q-5 -26 -35 -59t-81 -33z" />
    <glyph glyph-name="hungarumlaut" unicode="&#x2dd;" horiz-adv-x="542" 
d="M216 744q10 9 24.5 9t27 -14.5t12.5 -34t-19 -29.5l-178 -87l-18 24zM413 744q11 9 25 9t26.5 -14.5t12.5 -34t-19 -29.5l-178 -87l-18 24z" />
    <glyph glyph-name="dotaccentcmb" unicode="&#x307;" horiz-adv-x="234" 
d="M65 646q0 22 15 37t37 15t37 -15t15 -37t-15 -37t-37 -15t-37 15t-15 37z" />
    <glyph glyph-name="endash" unicode="&#x2013;" horiz-adv-x="718" 
d="M82 329h554q12 0 12 -11v-47q0 -11 -12 -11h-554q-12 0 -12 11v47q0 11 12 11z" />
    <glyph glyph-name="emdash" unicode="&#x2014;" horiz-adv-x="1232" 
d="M82 329h1068q12 0 12 -11v-47q0 -11 -12 -11h-1068q-12 0 -12 11v47q0 11 12 11z" />
    <glyph glyph-name="quoteleft" unicode="&#x2018;" horiz-adv-x="226" 
d="M158 711q18 0 18 -17q0 -9 -7 -14q-52 -39 -55 -91q30 -2 46 -19.5t16 -43t-18 -44t-44 -18.5t-45 21t-19 65t30 90t64 66q8 5 14 5z" />
    <glyph glyph-name="quoteright" unicode="&#x2019;" horiz-adv-x="226" 
d="M68 464q-18 0 -18 17q0 9 7 14q52 39 55 91q-30 2 -46 19.5t-16 43t18 44t44 18.5t45 -21t19 -65t-30 -90t-64 -66q-8 -5 -14 -5z" />
    <glyph glyph-name="quotesinglbase" unicode="&#x201a;" horiz-adv-x="246" 
d="M78 -135q-18 0 -18 17q0 9 7 14q52 39 55 91q-30 2 -46 19.5t-16 43t18 44t44 18.5t45 -21t19 -65t-30 -90t-64 -66q-8 -5 -14 -5z" />
    <glyph glyph-name="quotedblleft" unicode="&#x201c;" horiz-adv-x="388" 
d="M320 711q18 0 18 -17q0 -9 -7 -14q-52 -39 -55 -91q30 -2 46 -19.5t16 -43t-18 -44t-44 -18.5t-45 21t-19 65t30 90t64 66q8 5 14 5zM158 711q18 0 18 -17q0 -9 -7 -14q-52 -39 -55 -91q30 -2 46 -19.5t16 -43t-18 -44t-44 -18.5t-45 21t-19 65t30 90t64 66q8 5 14 5z
" />
    <glyph glyph-name="quotedblright" unicode="&#x201d;" horiz-adv-x="388" 
d="M68 464q-18 0 -18 17q0 9 7 14q52 39 55 91q-30 2 -46 19.5t-16 43t18 44t44 18.5t45 -21t19 -65t-30 -90t-64 -66q-8 -5 -14 -5zM230 464q-18 0 -18 17q0 9 7 14q52 39 55 91q-30 2 -46 19.5t-16 43t18 44t44 18.5t45 -21t19 -65t-30 -90t-64 -66q-8 -5 -14 -5z" />
    <glyph glyph-name="quotedblbase" unicode="&#x201e;" horiz-adv-x="408" 
d="M78 -135q-18 0 -18 17q0 9 7 14q52 39 55 91q-30 2 -46 19.5t-16 43t18 44t44 18.5t45 -21t19 -65t-30 -90t-64 -66q-8 -5 -14 -5zM240 -135q-18 0 -18 17q0 9 7 14q52 39 55 91q-30 2 -46 19.5t-16 43t18 44t44 18.5t45 -21t19 -65t-30 -90t-64 -66q-8 -5 -14 -5z" />
    <glyph glyph-name="dagger" unicode="&#x2020;" horiz-adv-x="535" 
d="M241 700h54q11 0 11 -12l-6 -203l173 11q12 0 12 -11v-54q0 -11 -12 -11l-173 11q-6 -433 -10 -688q0 -11 -13 -11h-19q-13 0 -13 11l-10 688l-173 -11q-12 0 -12 11v54q0 11 12 11l173 -11l-5 203q0 12 11 12z" />
    <glyph glyph-name="daggerdbl" unicode="&#x2021;" horiz-adv-x="535" 
d="M245 -257l-5 275l-178 -10q-12 0 -12 11v54q0 11 12 11l177 -11l-4 358l-173 -11q-12 0 -12 11v54q0 11 12 11l173 -11l-5 203q0 12 11 12h54q11 0 11 -12l-6 -203l173 11q12 0 12 -11v-54q0 -11 -12 -11l-173 11q-3 -169 -5 -358l178 11q12 0 12 -11v-54q0 -11 -12 -11
l-179 10q-4 -212 -4 -275q0 -11 -13 -11h-19q-13 0 -13 11z" />
    <glyph glyph-name="bullet" unicode="&#x2022;" horiz-adv-x="386" 
d="M70 337q0 53 35 88t88 35t88 -35t35 -88t-35 -88t-88 -35t-88 35t-35 88z" />
    <glyph glyph-name="ellipsis" unicode="&#x2026;" horiz-adv-x="669" 
d="M164.5 94q18.5 -18 18.5 -43.5t-18.5 -43.5t-43.5 -18t-43 18t-18 43t18 43.5t43 18.5t43.5 -18zM378 94q18 -18 18 -43.5t-18.5 -43.5t-43.5 -18t-43 18t-18 43t18 43.5t43.5 18.5t43.5 -18zM590.5 94q18.5 -18 18.5 -43.5t-18.5 -43.5t-43.5 -18t-43 18t-18 43t18 43.5
t43 18.5t43.5 -18z" />
    <glyph glyph-name="perthousand" unicode="&#x2030;" horiz-adv-x="1219" 
d="M121 501q0 -158 81 -158t81 158t-81 158t-81 -158zM50 501q0 87 40.5 143t111.5 56t111.5 -56t40.5 -143t-40.5 -143t-111.5 -56t-111.5 56t-40.5 143zM734 199q0 158 -81 158t-81 -158t81 -158t81 158zM805 199q0 -87 -40.5 -143t-111.5 -56t-111.5 56t-40.5 143
t40.5 143t111.5 56t111.5 -56t40.5 -143zM244 -23h-35q-8 0 -8 4t2 8l389 722q6 12 18 12h35q12 0 6 -12l-389 -722q-6 -12 -18 -12zM1098 199q0 158 -81 158t-81 -158t81 -158t81 158zM1169 199q0 -87 -40.5 -143t-111.5 -56t-111.5 56t-40.5 143t40.5 143t111.5 56
t111.5 -56t40.5 -143z" />
    <glyph glyph-name="guilsinglleft" unicode="&#x2039;" horiz-adv-x="289" 
d="M50 246q0 4 3 9l135 185q4 8 8 8t13.5 -4.5t9.5 -10.5q0 -2 -1 -5l-84 -182l84 -182q1 -3 1 -5q0 -6 -8 -10q-11 -5 -15 -5t-8 8l-135 185q-3 5 -3 9z" />
    <glyph glyph-name="guilsinglright" unicode="&#x203a;" horiz-adv-x="289" 
d="M239 246q0 -4 -3 -9l-135 -185q-4 -8 -8 -8t-13.5 4.5t-9.5 10.5q0 2 1 5l84 182l-84 182q-1 3 -1 5q0 6 8 10q11 5 15 5t8 -8l135 -185q3 -5 3 -9z" />
    <glyph glyph-name="fraction" unicode="&#x2044;" horiz-adv-x="227" 
d="M-69 -23h-35q-8 0 -8 4t2 8l389 722q6 12 18 12h35q8 0 8 -4t-2 -8l-389 -722q-6 -12 -18 -12z" />
    <glyph glyph-name="Euro" unicode="&#x20ac;" horiz-adv-x="745" 
d="M52 450h72q29 118 121.5 189.5t226.5 71.5q84 0 152.5 -23t68.5 -45v-114q0 -7 -4.5 -13.5t-11.5 -6.5q-17 0 -22 20q-18 67 -67 105t-116 38q-103 0 -171 -61t-87 -161h290q12 0 12 -11v-27q0 -11 -12 -11h-296v-23q0 -29 5 -62h291q12 0 12 -11v-27q0 -11 -12 -11h-281
q28 -96 95 -158.5t154 -62.5q65 0 97.5 12.5t44 18t29.5 17.5t20 13q18 11 25 3.5t7 -14.5t-8 -15q-34 -38 -70 -57q-66 -35 -155 -35q-134 0 -225.5 77t-116.5 201h-68q-12 0 -12 11v27q0 11 12 11h61q-1 11 -1 35.5t3 49.5h-63q-12 0 -12 11v27q0 11 12 11z" />
    <glyph glyph-name="trademark" unicode="&#x2122;" horiz-adv-x="977" 
d="M889 328l16 -1q12 0 12 -12.5t-13 -12.5l-62 3q-24 -3 -55 -3q-12 0 -12 12.5t11 12.5l9 1q18 3 18 18l-4 254l-146 -291q-4 -8 -10.5 -8t-10.5 8l-147 282l-3 -245q2 -14 18 -17l8 -2q13 0 13 -12t-14 -12l-45 2l-53 -2q-13 0 -13 12q0 4 3.5 8t7.5 4l16 2q20 4 20 17
l7 312q1 15 -17 17l-11 1q-10 3 -10 14t13 11l51 -1q17 -1 25 -13l152 -301l150 305q4 8 23 9l52 1q13 0 13 -12t-10 -13l-11 -1q-17 -2 -17 -17l7 -312q0 -16 19 -18zM206 305q-30 -3 -68 -3q-13 0 -13 12.5t11 12.5l21 1q20 2 20 18v308q0 10 -9 10h-46q-46 0 -63 -57
q-4 -9 -14 -9q-15 0 -15 15l5 71q0 16 17 16h304q16 0 18 -19q1 -11 3 -34t3 -34q0 -15 -13 -15t-17 13q-10 26 -23.5 39.5t-38.5 13.5h-46q-9 0 -9 -10v-308q0 -16 20 -18l16 -1q12 0 12 -12.5t-13 -12.5z" />
    <glyph glyph-name="minus" unicode="&#x2212;" horiz-adv-x="674" 
d="M602 264h-530q-12 0 -12 11v40q0 11 12 11h530q12 0 12 -11v-40q0 -11 -12 -11z" />
    </font>
</defs>
</svg>
